Money (2016) 1080p latino

945 vistas
1 estrella2 estrellas3 estrellas4 estrellas5 estrellas (Ninguna valoración todavía)
Cargando…

Información de Money (2016) 1080p latino

Datos de la película

  • Calidad: 1080p
  • Audio: Español Latino AC3 2.0 iTUNES - Ingles AC3 5.1 BLURAY
  • Subtitulos: Español Latino SRT
  • Resolución: 1920x856
  • Formato: MKV
  • Codec: H.264
  • Encoder: Dpelis
  • Mediainfo: Clic para Mostrar Datos Ver
  • Money (2016) 1080p Latino.mkv
    Format                      : Matroska
    Format version              : Version 4 / Version 2
    File size                   : 2.42 GiB
    Duration                    : 1 h 24 min
    Overall bit rate            : 4 097 kb/s
    Movie name                  : DPeliculasHDMega.ORG
    Encoded date                : UTC 2017-10-15 20:42:06 / UTC 2017-10-15T19:15:58Z
    Writing application         : mkvmerge v10.0.0 ('To Drown In You') 64bit
    Writing library             : libebml v1.3.4 + libmatroska v1.4.5 / Lavf57.7.2

    Video
    ID                          : 1
    Format                      : AVC
    Format/Info                 : Advanced Video Codec
    Format profile              : [email protected]
    Format settings, CABAC      : Yes
    Format settings, RefFrames  : 5 frames
    Codec ID                    : V_MPEG4/ISO/AVC
    Duration                    : 1 h 24 min
    Bit rate                    : 3 500 kb/s
    Width                       : 1 920 pixels
    Height                      : 856 pixels
    Display aspect ratio        : 2.25:1
    Frame rate mode             : Constant
    Frame rate                  : 23.976 (24000/1001) FPS
    Color space                 : YUV
    Chroma subsampling          : 4:2:0
    Bit depth                   : 8 bits
    Scan type                   : Progressive
    Bits/(Pixel*Frame)          : 0.089
    Stream size                 : 2.03 GiB (84%)
    Writing library             : x264 core 148 r2708 86b7198
    Encoding settings           : cabac=1 / ref=5 / deblock=1:0:0 / analyse=0x3:0x113 / me=umh / subme=8 / psy=1 / psy_rd=1.00:0.00 / mixed_ref=1 / me_range=16 / chroma_me=1 / trellis=1 / 8x8dct=1 / cqm=0 / deadzone=21,11 / fast_pskip=1 / chroma_qp_offset=-2 / threads=12 / lookahead_threads=2 / sliced_threads=0 / nr=0 / decimate=1 / interlaced=0 / bluray_compat=0 / constrained_intra=0 / bframes=3 / b_pyramid=2 / b_adapt=2 / b_bias=0 / direct=3 / weightb=1 / open_gop=0 / weightp=2 / keyint=240 / keyint_min=24 / scenecut=40 / intra_refresh=0 / rc_lookahead=50 / rc=abr / mbtree=1 / bitrate=3500 / ratetol=1.0 / qcomp=0.60 / qpmin=0 / qpmax=69 / qpstep=4 / vbv_maxrate=62500 / vbv_bufsize=78125 / nal_hrd=none / filler=0 / ip_ratio=1.40 / aq=1:1.00
    Default                     : Yes
    Forced                      : No
    Color range                 : Limited
    Color primaries             : BT.709
    Transfer characteristics    : BT.709
    Matrix coefficients         : BT.709
    Statistics Tags Issue       : mkvmerge v10.0.0 ('To Drown In You') 64bit 2017-10-15 20:42:06 / mkvmerge v10.0.0 ('To Drown In You') 64bit 2017-10-15 20:42:06 / UTC 2017-10-15T19:15:58Z
    FromStats_BitRate           : 3518821
    FromStats_Duration          : 01:24:29.064000000
    FromStats_FrameCount        : 121536
    FromStats_StreamSize        : 2229641472

    Audio #1
    ID                          : 2
    Format                      : AC-3
    Format/Info                 : Audio Coding 3
    Format settings, Endianness : Big
    Codec ID                    : A_AC3
    Duration                    : 1 h 24 min
    Bit rate mode               : Constant
    Bit rate                    : 192 kb/s
    Channel(s)                  : 2 channels
    Channel positions           : Front: L R
    Sampling rate               : 48.0 kHz
    Frame rate                  : 31.250 FPS (1536 SPF)
    Bit depth                   : 16 bits
    Compression mode            : Lossy
    Delay relative to video     : 11 ms
    Stream size                 : 116 MiB (5%)
    Language                    : Spanish
    Service kind                : Complete Main
    Default                     : Yes
    Forced                      : No
    Statistics Tags Issue       : mkvmerge v10.0.0 ('To Drown In You') 64bit 2017-10-15 20:42:06 / mkvmerge v10.0.0 ('To Drown In You') 64bit 2017-10-15 20:42:06 / UTC 2017-10-15T19:15:58Z
    FromStats_BitRate           : 192000
    FromStats_Duration          : 01:24:29.088000000
    FromStats_FrameCount        : 158409
    FromStats_StreamSize        : 121658112

    Audio #2
    ID                          : 3
    Format                      : AC-3
    Format/Info                 : Audio Coding 3
    Format settings, Endianness : Big
    Codec ID                    : A_AC3
    Duration                    : 1 h 24 min
    Bit rate mode               : Constant
    Bit rate                    : 384 kb/s
    Channel(s)                  : 6 channels
    Channel positions           : Front: L C R, Side: L R, LFE
    Sampling rate               : 48.0 kHz
    Frame rate                  : 31.250 FPS (1536 SPF)
    Bit depth                   : 16 bits
    Compression mode            : Lossy
    Delay relative to video     : -5 ms
    Stream size                 : 232 MiB (9%)
    Title                       : Surround
    Language                    : English
    Service kind                : Complete Main
    Default                     : No
    Forced                      : No
    Statistics Tags Issue       : mkvmerge v10.0.0 ('To Drown In You') 64bit 2017-10-15 20:42:06 / mkvmerge v10.0.0 ('To Drown In You') 64bit 2017-10-15 20:42:06 / UTC 2017-10-15T19:15:58Z
    FromStats_BitRate           : 384000
    FromStats_Duration          : 01:24:28.960000000
    FromStats_FrameCount        : 158405
    FromStats_StreamSize        : 243310080

    Text
    ID                          : 4
    Format                      : UTF-8
    Codec ID                    : S_TEXT/UTF8
    Codec ID/Info               : UTF-8 Plain Text
    Language                    : Spanish
    Default                     : Yes
    Forced                      : No
    Statistics Tags Issue       : mkvmerge v10.0.0 ('To Drown In You') 64bit 2017-10-15 20:42:06 / mkvmerge v10.0.0 ('To Drown In You') 64bit 2017-10-15 20:42:06 / UTC 2017-10-15T19:15:58Z
    FromStats_BitRate           : 75
    FromStats_Duration          : 01:21:24.468000000
    FromStats_FrameCount        : 1364
    FromStats_StreamSize        : 45853

    Menu
    00:00:00.000                : :Chapter 1
    00:06:38.398                : :Chapter 2
    00:12:53.439                : :Chapter 3
    00:17:59.954                : :Chapter 4
    00:29:13.543                : :Chapter 5
    00:33:00.770                : :Chapter 6
    00:42:56.574                : :Chapter 7
    00:55:03.383                : :Chapter 8
    01:02:58.775                : :Chapter 9
    01:09:02.138                : :Chapter 10
    01:16:06.979                : :Chapter 11
    01:22:59.850                : :Chapter 12

  • Peso: 2.42 GB

Sinopsis

Dos ricos hombres de negocios están a punto de llevarse 5 millones de dólares, dinero malversado que han obtenido de forma injusta. Pero sus planes se van a destapar por un huésped que no había sido invitado.

Ficha técnica

  • Titulo original: Money
  • Fecha de lanzamiento: 06-04-2016 (United States of America)
  • Director: Martín Rosete
  • Género: Crimen, Suspense
  • Puntuación: 0.0 0 votos
  • Duración:
    1h 26m

Video trailer de la película

Enlaces de descarga

Descargar Money (2016) 1080p latino

dpeliculas

Aportes de DPeliculasHDmega la pass es:dpeliculashdmega.org Aportes de CinemaniaHD la pass es:cinemaniahdd.com
Guardado en : Crimen , Suspense

Películas relacionadas

  • Forgotten (2017) NF 1080p Latino

    2017
    Forgotten (2017) NF 1080p Latino

    5.0 1h 48m 2017

    Jin-seok, de 21 años, se muda a una nueva casa con su familia. Padece una esquizofrenia leve pero lleva...

    Director: Jang Hang-jun

    Género: Suspense

    Actores: Na Young-hee

  • Escuadrón suicida (2016) THEATRICAL 4K HDR Latino

    2016
    Escuadrón suicida (2016) THEATRICAL 4K HDR Latino

    5.0 2 h 2 min 2016

    Mientras el gobierno de EE.UU no tiene claro cómo responder a una visita alienígena a la Tierra con...

    Director: Shane B. Scott

    Género: 4K HDR

    Actores: William Hainsworth

  • Dos policías rebeldes (1995) Full 1080p Latino

    1995
    Dos policías rebeldes (1995) Full 1080p Latino

    5.0 1 h 58 min 1995

    Un alijo de heroína valorada en unos 100 millones de dólares es robado del mismísimo depósito de...

    Director: Michael Bay

    Género: Acción

    Actores: Will Smith

  • Actos De Venganza (2017) Full 1080p Latino

    2017
    Actos De Venganza (2017) Full 1080p Latino

    5.0 1 h 27 min 2017

    Antonio Banderas se meterá en la piel de un abogado que sufre un tremendo trauma al perder a su mujer...

    Director: Isaac Florentine

    Género: Acción

    Actores: Robert Forster

Comentarios 0