París puede esperar (2016) 1080p Latino

659 vistas
1 estrella2 estrellas3 estrellas4 estrellas5 estrellas (Ninguna valoración todavía)
Cargando…

Información de París puede esperar (2016) 1080p Latino

Datos de la película

  • Calidad: 1080p
  • Audio: Español Latino AC3 2.0 DVD - Ingles AC3 5.1 BLURAY
  • Subtitulos: Español Latino SRT
  • Resolución: 1920X1036
  • Formato: MKV
  • Codec: H.264
  • Encoder: Dracarys
  • Mediainfo: Clic para Mostrar Datos Ver
  • Format                                   : Matroska
    Format version                           : Version 4 / Version 2
    File size                                : 2.77 GiB
    Duration                                 : 1 h 32 min
    Overall bit rate                         : 4 293 kb/s
    Movie name                               : CinemaniaHDD.com
    Encoded date                             : UTC 2018-01-16 04:27:52 / UTC 2018-01-16T01:53:36Z
    Writing application                      : mkvmerge v15.0.0 ('Duel with the Devil') 64-bit
    Writing library                          : libebml v1.3.5 + libmatroska v1.4.5 / Lavf57.7.2

    Video
    ID                                       : 1
    Format                                   : AVC
    Format/Info                              : Advanced Video Codec
    Format profile                           : High@L4.1
    Format settings                          : CABAC / 4 Ref Frames
    Format settings, CABAC                   : Yes
    Format settings, RefFrames               : 4 frames
    Codec ID                                 : V_MPEG4/ISO/AVC
    Duration                                 : 1 h 32 min
    Bit rate                                 : 3 500 kb/s
    Width                                    : 1 920 pixels
    Height                                   : 1 036 pixels
    Display aspect ratio                     : 1.85:1
    Frame rate mode                          : Constant
    Frame rate                               : 23.976 (24000/1001) FPS
    Color space                              : YUV
    Chroma subsampling                       : 4:2:0
    Bit depth                                : 8 bits
    Scan type                                : Progressive
    Bits/(Pixel*Frame)                       : 0.073
    Stream size                              : 2.18 GiB (79%)
    Title                                    : París puede esperar (2016) 1080p Latino
    Writing library                          : x264 core 148 r2708 86b7198
    Encoding settings                        : cabac=1 / ref=3 / deblock=1:0:0 / analyse=0x3:0x113 / me=hex / subme=7 / psy=1 / psy_rd=1.00:0.00 / mixed_ref=1 / me_range=16 / chroma_me=1 / trellis=1 / 8x8dct=1 / cqm=0 / deadzone=21,11 / fast_pskip=1 / chroma_qp_offset=-2 / threads=32 / lookahead_threads=5 / sliced_threads=0 / nr=0 / decimate=1 / interlaced=0 / bluray_compat=0 / constrained_intra=0 / bframes=3 / b_pyramid=2 / b_adapt=1 / b_bias=0 / direct=1 / weightb=1 / open_gop=0 / weightp=2 / keyint=240 / keyint_min=24 / scenecut=40 / intra_refresh=0 / rc_lookahead=40 / rc=abr / mbtree=1 / bitrate=3500 / ratetol=1.0 / qcomp=0.60 / qpmin=0 / qpmax=69 / qpstep=4 / vbv_maxrate=62500 / vbv_bufsize=78125 / nal_hrd=none / filler=0 / ip_ratio=1.40 / aq=1:1.00
    Language                                 : English
    Default                                  : Yes
    Forced                                   : No
    Color range                              : Limited
    Color primaries                          : BT.709
    Transfer characteristics                 : BT.709
    Matrix coefficients                      : BT.709
    Statistics Tags Issue                    : mkvmerge v15.0.0 ('Duel with the Devil') 64-bit 2018-01-16 04:27:52 / mkvmerge v15.0.0 ('Duel with the Devil') 64-bit 2018-01-16 04:27:52 / UTC 2018-01-16T01:53:36Z
    FromStats_BitRate                        : 3459260
    FromStats_Duration                       : 01:32:25.540000000
    FromStats_FrameCount                     : 132960
    FromStats_StreamSize                     : 2397933313

    Audio #1
    ID                                       : 2
    Format                                   : AC-3
    Format/Info                              : Audio Coding 3
    Format settings, Endianness              : Big
    Codec ID                                 : A_AC3
    Duration                                 : 1 h 32 min
    Bit rate mode                            : Constant
    Bit rate                                 : 192 kb/s
    Channel(s)                               : 2 channels
    Channel positions                        : Front: L R
    Sampling rate                            : 48.0 kHz
    Frame rate                               : 31.250 FPS (1536 SPF)
    Bit depth                                : 16 bits
    Compression mode                         : Lossy
    Delay relative to video                  : -5 ms
    Stream size                              : 127 MiB (4%)
    Language                                 : Spanish
    Service kind                             : Complete Main
    Default                                  : Yes
    Forced                                   : No
    Statistics Tags Issue                    : mkvmerge v15.0.0 ('Duel with the Devil') 64-bit 2018-01-16 04:27:52 / mkvmerge v15.0.0 ('Duel with the Devil') 64-bit 2018-01-16 04:27:52 / UTC 2018-01-16T01:53:36Z
    FromStats_BitRate                        : 192000
    FromStats_Duration                       : 01:32:26.016000000
    FromStats_FrameCount                     : 173313
    FromStats_StreamSize                     : 133104384

    Audio #2
    ID                                       : 3
    Format                                   : AC-3
    Format/Info                              : Audio Coding 3
    Format settings, Endianness              : Big
    Codec ID                                 : A_AC3
    Duration                                 : 1 h 32 min
    Bit rate mode                            : Constant
    Bit rate                                 : 640 kb/s
    Channel(s)                               : 6 channels
    Channel positions                        : Front: L C R, Side: L R, LFE
    Sampling rate                            : 48.0 kHz
    Frame rate                               : 31.250 FPS (1536 SPF)
    Bit depth                                : 16 bits
    Compression mode                         : Lossy
    Delay relative to video                  : -5 ms
    Stream size                              : 423 MiB (15%)
    Language                                 : English
    Service kind                             : Complete Main
    Default                                  : No
    Forced                                   : No
    Statistics Tags Issue                    : mkvmerge v15.0.0 ('Duel with the Devil') 64-bit 2018-01-16 04:27:52 / mkvmerge v15.0.0 ('Duel with the Devil') 64-bit 2018-01-16 04:27:52 / UTC 2018-01-16T01:53:36Z
    FromStats_BitRate                        : 640000
    FromStats_Duration                       : 01:32:25.536000000
    FromStats_FrameCount                     : 173298
    FromStats_StreamSize                     : 443642880

    Text
    ID                                       : 4
    Format                                   : UTF-8
    Codec ID                                 : S_TEXT/UTF8
    Codec ID/Info                            : UTF-8 Plain Text
    Language                                 : Spanish
    Default                                  : No
    Forced                                   : No
    Statistics Tags Issue                    : mkvmerge v15.0.0 ('Duel with the Devil') 64-bit 2018-01-16 04:27:52 / mkvmerge v15.0.0 ('Duel with the Devil') 64-bit 2018-01-16 04:27:52 / UTC 2018-01-16T01:53:36Z
    FromStats_BitRate                        : 53
    FromStats_Duration                       : 01:27:20.583000000
    FromStats_FrameCount                     : 1033
    FromStats_StreamSize                     : 35294

    Menu
    00:00:00.000                             : :00:00:00.000
    00:05:24.407                             : :00:05:24.324
    00:09:56.930                             : :00:09:56.805
    00:15:01.067                             : :00:15:00.983
    00:19:54.610                             : :00:19:54.527
    00:27:45.914                             : :00:27:45.914
    00:35:32.964                             : :00:35:32.922
    00:42:01.185                             : :00:42:01.144
    00:48:22.358                             : :00:48:22.358
    00:53:28.455                             : :00:53:28.330
    00:59:18.138                             : :00:59:18.138
    01:04:54.557                             : :01:04:54.557
    01:10:17.505                             : :01:10:17.505
    01:17:32.231                             : :01:17:32.189
    01:22:44.001                             : :01:22:43.876
    01:27:50.015                             : :01:27:49.931

  • Peso: 2.77 GiB

Sinopsis

Anne se encuentra en una encrucijada en su vida. Casada con un exitoso productor de cine, un día se encuentra de forma inesperada viajando en coche desde Cannes a París con un socio de negocios de su marido. Lo que debería ser un viaje de siete horas se convierte en una aventura de dos días repleta de diversión llena de lugares pintorescos, buena comida y mejor vino, mucho humor, sabiduría y romance, despertando los sentidos de Anne y dándole un nuevo deseo a su vida.

Ficha técnica

  • Titulo original: Paris Can Wait
  • Fecha de lanzamiento: 12-09-2016 (United States of America)
  • Director: Eleanor Coppola
  • Género: Drama, Romance
  • Puntuación: 0.0 0 votos
  • Duración:
    1h 32m

Video trailer de la película

Enlaces de descarga

Rip de Bluray

Descargar París puede esperar (2016) 1080p Latino




Aportes de DPeliculasHDmega la pass es:dpeliculashdmega.org Aportes de CinemaniaHD la pass es:cinemaniahdd.com
Guardado en : Drama , Romance

Películas relacionadas

  • Milagros inesperados (1999) Full 1080p Latino

    1999
    Milagros inesperados (1999) Full 1080p Latino

    5.0 3h 9m 1999

    En el sur de los Estados Unidos, en plena Depresión, Paul Edgecomb es un vigilante penitenciario a cargo...

    Director: Susan Malerstein

    Género: Crimen

    Actores: William Sadler

  • La terminal (2004) Full 1080p Latino

    2004
    La terminal (2004) Full 1080p Latino

    5.0 2 h 8 min 2004

    Basado en hechos reales, Viktor Navorski (Tom Hanks) es un inmigrante balcánico que, al estallar la...

    Director: Steven Spielberg

    Género: Comedia

    Actores: Zoe Saldana

  • La invención de Cronos (1993) Full 1080p Latino

    1993
    La invención de Cronos (1993) Full 1080p Latino

    0.0 1 h 32 min 1993

    Cronos es un artefacto creado por un alquimista medieval, en cuyo interior se encuentra instalado un...

    Director: Guillermo del Toro

    Género: Drama

    Actores: Tamara Shanath

  • Bullitt (1968) Full 1080p Latino

    1968
    Bullitt (1968) Full 1080p Latino

    0.0 1h 53m 1968

    Frank Bullit es un detective de la policía de San Francisco. Un ambicioso político le encarga que proteja...

    Director: Tim Zinnemann

    Género: Acción

    Actores: Vic Tayback

Comentarios 0