Pequeña gran vida (2017) Full 1080p Latino

1.239 vistas
1 estrella2 estrellas3 estrellas4 estrellas5 estrellas (Ninguna valoración todavía)
Cargando…

Información de Pequeña gran vida (2017) Full 1080p Latino

Datos de la película

  • Calidad: Full 1080p
  • Audio: Español Latino AC3 5.1 BLURAY - Ingles DTS 5.1 BLURAY
  • Subtitulos: Español Latino PGS - Ingles PGS
  • Resolución: 1920x1080p
  • Formato: MKV
  • Codec: H.264
  • Encoder: Dracarys
  • Mediainfo: Clic para Mostrar Datos Ver
  • Format                                   : Matroska
    Format version                           : Version 4 / Version 2
    File size                                : 9.87 GiB
    Duration                                 : 2 h 15 min
    Overall bit rate                         : 10.4 Mb/s
    Movie name                               : CinemaniaHDD.com
    Encoded date                             : UTC 2018-03-14 05:34:22 / UTC 2018-03-13T20:48:34Z
    Writing application                      : mkvmerge v15.0.0 ('Duel with the Devil') 64-bit
    Writing library                          : libebml v1.3.5 + libmatroska v1.4.5 / Lavf57.7.2

    Video
    ID                                       : 1
    Format                                   : AVC
    Format/Info                              : Advanced Video Codec
    Format profile                           : High@L4.1
    Format settings                          : CABAC / 4 Ref Frames
    Format settings, CABAC                   : Yes
    Format settings, RefFrames               : 4 frames
    Codec ID                                 : V_MPEG4/ISO/AVC
    Duration                                 : 2 h 15 min
    Bit rate                                 : 8 080 kb/s
    Width                                    : 1 920 pixels
    Height                                   : 1 080 pixels
    Display aspect ratio                     : 16:9
    Frame rate mode                          : Constant
    Frame rate                               : 23.976 (24000/1001) FPS
    Color space                              : YUV
    Chroma subsampling                       : 4:2:0
    Bit depth                                : 8 bits
    Scan type                                : Progressive
    Bits/(Pixel*Frame)                       : 0.163
    Stream size                              : 7.64 GiB (77%)
    Title                                    : Pequeña gran vida (2017) Full 1080p Latino
    Writing library                          : x264 core 148 r2708 86b7198
    Encoding settings                        : cabac=1 / ref=4 / deblock=1:0:0 / analyse=0x3:0x133 / me=esa / subme=9 / psy=1 / psy_rd=1.00:0.00 / mixed_ref=1 / me_range=16 / chroma_me=1 / trellis=2 / 8x8dct=1 / cqm=0 / deadzone=21,11 / fast_pskip=1 / chroma_qp_offset=-2 / threads=34 / lookahead_threads=2 / sliced_threads=0 / nr=0 / decimate=1 / interlaced=0 / bluray_compat=0 / constrained_intra=0 / bframes=3 / b_pyramid=2 / b_adapt=2 / b_bias=0 / direct=3 / weightb=1 / open_gop=0 / weightp=2 / keyint=240 / keyint_min=24 / scenecut=40 / intra_refresh=0 / rc_lookahead=60 / rc=crf / mbtree=1 / crf=20.0 / qcomp=0.60 / qpmin=0 / qpmax=69 / qpstep=4 / vbv_maxrate=62500 / vbv_bufsize=78125 / crf_max=0.0 / nal_hrd=none / filler=0 / ip_ratio=1.40 / aq=1:1.00
    Language                                 : English
    Default                                  : Yes
    Forced                                   : No
    Color range                              : Limited
    Color primaries                          : BT.709
    Transfer characteristics                 : BT.709
    Matrix coefficients                      : BT.709
    Statistics Tags Issue                    : mkvmerge v15.0.0 ('Duel with the Devil') 64-bit 2018-03-14 05:34:22 / mkvmerge v15.0.0 ('Duel with the Devil') 64-bit 2018-03-14 05:34:22 / UTC 2018-03-13T20:48:34Z
    FromStats_BitRate                        : 8264689
    FromStats_Duration                       : 02:15:20.404000000
    FromStats_FrameCount                     : 194695
    FromStats_StreamSize                     : 8389077519

    Audio #1
    ID                                       : 2
    Format                                   : AC-3
    Format/Info                              : Audio Coding 3
    Format settings, Endianness              : Big
    Codec ID                                 : A_AC3
    Duration                                 : 2 h 15 min
    Bit rate mode                            : Constant
    Bit rate                                 : 640 kb/s
    Channel(s)                               : 6 channels
    Channel positions                        : Front: L C R, Side: L R, LFE
    Sampling rate                            : 48.0 kHz
    Frame rate                               : 31.250 FPS (1536 SPF)
    Bit depth                                : 16 bits
    Compression mode                         : Lossy
    Stream size                              : 620 MiB (6%)
    Language                                 : Spanish
    Service kind                             : Complete Main
    Default                                  : Yes
    Forced                                   : No
    Statistics Tags Issue                    : mkvmerge v15.0.0 ('Duel with the Devil') 64-bit 2018-03-14 05:34:22 / mkvmerge v15.0.0 ('Duel with the Devil') 64-bit 2018-03-14 05:34:22 / UTC 2018-03-13T20:48:34Z
    FromStats_BitRate                        : 640000
    FromStats_Duration                       : 02:15:20.416000000
    FromStats_FrameCount                     : 253763
    FromStats_StreamSize                     : 649633280

    Audio #2
    ID                                       : 3
    Format                                   : DTS
    Format/Info                              : Digital Theater Systems
    Mode                                     : 16
    Format settings, Endianness              : Big
    Codec ID                                 : A_DTS
    Duration                                 : 2 h 15 min
    Bit rate mode                            : Constant
    Bit rate                                 : 1 509 kb/s
    Channel(s)                               : 6 channels
    Channel positions                        : Front: L C R, Side: L R, LFE
    Sampling rate                            : 48.0 kHz
    Frame rate                               : 93.750 FPS (512 SPF)
    Bit depth                                : 24 bits
    Compression mode                         : Lossy
    Stream size                              : 1.43 GiB (14%)
    Language                                 : English
    Default                                  : No
    Forced                                   : No
    Statistics Tags Issue                    : mkvmerge v15.0.0 ('Duel with the Devil') 64-bit 2018-03-14 05:34:22 / mkvmerge v15.0.0 ('Duel with the Devil') 64-bit 2018-03-14 05:34:22 / UTC 2018-03-13T20:48:34Z
    FromStats_BitRate                        : 1508999
    FromStats_Duration                       : 02:15:20.406000000
    FromStats_FrameCount                     : 761288
    FromStats_StreamSize                     : 1531711456

    Text #1
    ID                                       : 4
    Format                                   : UTF-8
    Codec ID                                 : S_TEXT/UTF8
    Codec ID/Info                            : UTF-8 Plain Text
    Title                                    : Forzados-SRT
    Language                                 : Spanish
    Default                                  : Yes
    Forced                                   : No
    Statistics Tags Issue                    : mkvmerge v15.0.0 ('Duel with the Devil') 64-bit 2018-03-14 05:34:22 / mkvmerge v15.0.0 ('Duel with the Devil') 64-bit 2018-03-14 05:34:22 / UTC 2018-03-13T20:48:34Z
    FromStats_BitRate                        : 0
    FromStats_Duration                       : 02:14:25.349000000
    FromStats_FrameCount                     : 37
    FromStats_StreamSize                     : 934

    Text #2
    ID                                       : 5
    Format                                   : PGS
    Muxing mode                              : zlib
    Codec ID                                 : S_HDMV/PGS
    Codec ID/Info                            : Picture based subtitle format used on BDs/HD-DVDs
    Language                                 : English
    Default                                  : No
    Forced                                   : No
    Statistics Tags Issue                    : mkvmerge v15.0.0 ('Duel with the Devil') 64-bit 2018-03-14 05:34:22 / mkvmerge v15.0.0 ('Duel with the Devil') 64-bit 2018-03-14 05:34:22 / UTC 2018-03-13T20:48:34Z
    FromStats_BitRate                        : 37144
    FromStats_Duration                       : 02:04:47.689000000
    FromStats_FrameCount                     : 3270
    FromStats_StreamSize                     : 34765365

    Text #3
    ID                                       : 6
    Format                                   : PGS
    Muxing mode                              : zlib
    Codec ID                                 : S_HDMV/PGS
    Codec ID/Info                            : Picture based subtitle format used on BDs/HD-DVDs
    Language                                 : Spanish
    Default                                  : No
    Forced                                   : No
    Statistics Tags Issue                    : mkvmerge v15.0.0 ('Duel with the Devil') 64-bit 2018-03-14 05:34:22 / mkvmerge v15.0.0 ('Duel with the Devil') 64-bit 2018-03-14 05:34:22 / UTC 2018-03-13T20:48:34Z
    FromStats_BitRate                        : 32895
    FromStats_Duration                       : 02:14:38.404000000
    FromStats_FrameCount                     : 3120
    FromStats_StreamSize                     : 33217797

    Menu
    00:00:00.000                             : :Chapter 1
    00:06:13.540                             : :Chapter 2
    00:10:38.346                             : :Chapter 3
    00:16:24.484                             : :Chapter 4
    00:22:14.667                             : :Chapter 5
    00:30:23.905                             : :Chapter 6
    00:38:44.364                             : :Chapter 7
    00:42:38.598                             : :Chapter 8
    00:47:36.687                             : :Chapter 9
    00:55:08.722                             : :Chapter 10
    01:04:35.830                             : :Chapter 11
    01:13:11.637                             : :Chapter 12
    01:21:13.202                             : :Chapter 13
    01:28:00.776                             : :Chapter 14
    01:33:25.308                             : :Chapter 15
    01:41:42.513                             : :Chapter 16
    01:44:11.954                             : :Chapter 17
    01:51:54.374                             : :Chapter 18
    01:58:36.568                             : :Chapter 19
    02:08:58.856                             : :Chapter 20

  • Peso: 9.87 GiB

Sinopsis

Esta es la historia de un hombre de Omaha, que se une a un grupo de personas que están experimentando con una nueva idea, la de reducir su tamaño para moverse a las pequeñas comunidades que se están creando en todo el mundo.

Ficha técnica

Video trailer de la película

Enlaces de descarga

Rip de Bluray

Descargar Pequeña gran vida (2017) Full 1080p Latino




Aportes de DPeliculasHDmega la pass es:dpeliculashdmega.org Aportes de CinemaniaHD la pass es:cinemaniahdd.com

Películas relacionadas

  • Mamá de alquiler (2008) Full 1080p Latino

    2008
    Mamá de alquiler (2008) Full 1080p Latino

    0.0 33h 28m 2008

    Una brillante mujer de negocios sueña con tener un hijo, pero descubre que no es fértil, por lo que...

    Director: Michael McCullers

    Género: Comedia

    Actores: Will Forte

  • Westworld T02E01 – Journey into night 1080p Latino

    2016
    Westworld T02E01 – Journey into night 1080p Latino

    0.0 1h 0m 2016

    Westworld, es un revolucionario parque de diversiones futurista, que emula un ambiente similar al Lejano...

    Director: Lisa Joy

    Género: Ciencia ficción

    Actores: Thandie Newton

  • La telaraña de Charlotte (2006) Full 1080p Latino

    2006
    La telaraña de Charlotte (2006) Full 1080p Latino

    0.0 1 h 36 min 2006

    Wilbur, un cerdito que vive en una granja, se entera de que su posible destino final es acabar en el...

    Director: Gary Winick

    Género: Comedia

    Actores: Thomas Haden Church

  • Australia (2008) Full 1080p Latino

    2008
    Australia (2008) Full 1080p Latino

    0.0 2 h 45 min 2008

    Lady Sarah Ashley (Nicole Kidman), una aristócrata inglesa, se ha pasado la vida persiguiendo la perfección...

    Director: Sophie Fabbri-Jackson

    Género: Aventura

    Actores: Yuen Wah

Comentarios 0