Pitch Perfect 3 (2017) 1080p Latino

487 vistas
1 estrella2 estrellas3 estrellas4 estrellas5 estrellas (Ninguna valoración todavía)
Cargando…

Información de Pitch Perfect 3 (2017) 1080p Latino

Datos de la película

  • Calidad: 1080p
  • Audio: Español Latino AC3 5.1 iTUNES - Ingles AC3 5.1 BLURAY
  • Subtitulos: Español Latino SRT- FORZADOS SRT
  • Resolución: 1920x1036p
  • Formato: MKV
  • Codec: H.264
  • Encoder: Dracarys
  • Mediainfo: Clic para Mostrar Datos Ver
  • Format                                   : Matroska
    Format version                           : Version 4 / Version 2
    File size                                : 2.90 GiB
    Duration                                 : 1 h 33 min
    Overall bit rate                         : 4 465 kb/s
    Movie name                               : CinemaniaHDD.com
    Encoded date                             : UTC 2018-03-08 00:21:43 / UTC 2018-03-07T23:08:09Z
    Writing application                      : mkvmerge v15.0.0 ('Duel with the Devil') 64-bit
    Writing library                          : libebml v1.3.5 + libmatroska v1.4.5 / Lavf57.7.2

    Video
    ID                                       : 1
    Format                                   : AVC
    Format/Info                              : Advanced Video Codec
    Format profile                           : High@L4.1
    Format settings                          : CABAC / 4 Ref Frames
    Format settings, CABAC                   : Yes
    Format settings, RefFrames               : 4 frames
    Codec ID                                 : V_MPEG4/ISO/AVC
    Duration                                 : 1 h 33 min
    Bit rate                                 : 3 500 kb/s
    Width                                    : 1 920 pixels
    Height                                   : 1 036 pixels
    Display aspect ratio                     : 1.85:1
    Frame rate mode                          : Constant
    Frame rate                               : 23.976 (24000/1001) FPS
    Color space                              : YUV
    Chroma subsampling                       : 4:2:0
    Bit depth                                : 8 bits
    Scan type                                : Progressive
    Bits/(Pixel*Frame)                       : 0.073
    Stream size                              : 2.18 GiB (75%)
    Title                                    : Pitch Perfect 3 (2017) 1080p Latino
    Writing library                          : x264 core 148 r2708 86b7198
    Encoding settings                        : cabac=1 / ref=4 / deblock=1:0:0 / analyse=0x3:0x113 / me=umh / subme=8 / psy=1 / psy_rd=1.00:0.00 / mixed_ref=1 / me_range=16 / chroma_me=1 / trellis=1 / 8x8dct=1 / cqm=0 / deadzone=21,11 / fast_pskip=1 / chroma_qp_offset=-2 / threads=32 / lookahead_threads=5 / sliced_threads=0 / nr=0 / decimate=1 / interlaced=0 / bluray_compat=0 / constrained_intra=0 / bframes=3 / b_pyramid=2 / b_adapt=2 / b_bias=0 / direct=3 / weightb=1 / open_gop=0 / weightp=2 / keyint=240 / keyint_min=24 / scenecut=40 / intra_refresh=0 / rc_lookahead=50 / rc=abr / mbtree=1 / bitrate=3500 / ratetol=1.0 / qcomp=0.60 / qpmin=0 / qpmax=69 / qpstep=4 / vbv_maxrate=62500 / vbv_bufsize=78125 / nal_hrd=none / filler=0 / ip_ratio=1.40 / aq=1:1.00
    Language                                 : English
    Default                                  : Yes
    Forced                                   : No
    Color range                              : Limited
    Color primaries                          : BT.709
    Transfer characteristics                 : BT.709
    Matrix coefficients                      : BT.709
    Statistics Tags Issue                    : mkvmerge v15.0.0 ('Duel with the Devil') 64-bit 2018-03-08 00:21:43 / mkvmerge v15.0.0 ('Duel with the Devil') 64-bit 2018-03-08 00:21:43 / UTC 2018-03-07T23:08:09Z
    FromStats_BitRate                        : 3438655
    FromStats_Duration                       : 01:33:02.744000000
    FromStats_FrameCount                     : 133852
    FromStats_StreamSize                     : 2399641763

    Audio #1
    ID                                       : 2
    Format                                   : AC-3
    Format/Info                              : Audio Coding 3
    Format settings, Endianness              : Big
    Codec ID                                 : A_AC3
    Duration                                 : 1 h 33 min
    Bit rate mode                            : Constant
    Bit rate                                 : 384 kb/s
    Channel(s)                               : 6 channels
    Channel positions                        : Front: L C R, Side: L R, LFE
    Sampling rate                            : 48.0 kHz
    Frame rate                               : 31.250 FPS (1536 SPF)
    Bit depth                                : 16 bits
    Compression mode                         : Lossy
    Delay relative to video                  : 19 ms
    Stream size                              : 256 MiB (9%)
    Language                                 : Spanish
    Service kind                             : Complete Main
    Default                                  : Yes
    Forced                                   : No
    Statistics Tags Issue                    : mkvmerge v15.0.0 ('Duel with the Devil') 64-bit 2018-03-08 00:21:43 / mkvmerge v15.0.0 ('Duel with the Devil') 64-bit 2018-03-08 00:21:43 / UTC 2018-03-07T23:08:09Z
    FromStats_BitRate                        : 384000
    FromStats_Duration                       : 01:33:01.856000000
    FromStats_FrameCount                     : 174433
    FromStats_StreamSize                     : 267929088

    Audio #2
    ID                                       : 3
    Format                                   : AC-3
    Format/Info                              : Audio Coding 3
    Format settings, Endianness              : Big
    Codec ID                                 : A_AC3
    Duration                                 : 1 h 33 min
    Bit rate mode                            : Constant
    Bit rate                                 : 640 kb/s
    Channel(s)                               : 6 channels
    Channel positions                        : Front: L C R, Side: L R, LFE
    Sampling rate                            : 48.0 kHz
    Frame rate                               : 31.250 FPS (1536 SPF)
    Bit depth                                : 16 bits
    Compression mode                         : Lossy
    Delay relative to video                  : -5 ms
    Stream size                              : 426 MiB (14%)
    Title                                    : Surround
    Language                                 : English
    Service kind                             : Complete Main
    Default                                  : No
    Forced                                   : No
    Statistics Tags Issue                    : mkvmerge v15.0.0 ('Duel with the Devil') 64-bit 2018-03-08 00:21:43 / mkvmerge v15.0.0 ('Duel with the Devil') 64-bit 2018-03-08 00:21:43 / UTC 2018-03-07T23:08:09Z
    FromStats_BitRate                        : 640000
    FromStats_Duration                       : 01:33:02.784000000
    FromStats_FrameCount                     : 174462
    FromStats_StreamSize                     : 446622720

    Text #1
    ID                                       : 4
    Format                                   : UTF-8
    Codec ID                                 : S_TEXT/UTF8
    Codec ID/Info                            : UTF-8 Plain Text
    Title                                    : Forzados
    Language                                 : Spanish
    Default                                  : Yes
    Forced                                   : Yes
    Statistics Tags Issue                    : mkvmerge v15.0.0 ('Duel with the Devil') 64-bit 2018-03-08 00:21:43 / mkvmerge v15.0.0 ('Duel with the Devil') 64-bit 2018-03-08 00:21:43 / UTC 2018-03-07T23:08:09Z
    FromStats_BitRate                        : 21
    FromStats_Duration                       : 01:30:02.538000000
    FromStats_FrameCount                     : 375
    FromStats_StreamSize                     : 14414

    Text #2
    ID                                       : 5
    Format                                   : UTF-8
    Codec ID                                 : S_TEXT/UTF8
    Codec ID/Info                            : UTF-8 Plain Text
    Language                                 : Spanish
    Default                                  : No
    Forced                                   : No
    Statistics Tags Issue                    : mkvmerge v15.0.0 ('Duel with the Devil') 64-bit 2018-03-08 00:21:43 / mkvmerge v15.0.0 ('Duel with the Devil') 64-bit 2018-03-08 00:21:43 / UTC 2018-03-07T23:08:09Z
    FromStats_BitRate                        : 83
    FromStats_Duration                       : 01:30:02.538000000
    FromStats_FrameCount                     : 1696
    FromStats_StreamSize                     : 56264

    Menu
    00:00:00.000                             : :00:00:00.000
    00:02:38.575                             : :00:02:38.533
    00:05:18.318                             : :00:05:18.318
    00:09:31.529                             : :00:09:31.529
    00:14:15.563                             : :00:14:15.563
    00:16:55.431                             : :00:16:55.431
    00:19:09.940                             : :00:19:09.940
    00:24:51.657                             : :00:24:51.657
    00:29:26.765                             : :00:29:26.765
    00:34:33.113                             : :00:34:33.113
    00:38:41.402                             : :00:38:41.402
    00:45:50.831                             : :00:45:50.831
    00:50:31.612                             : :00:50:31.612
    00:55:42.548                             : :00:55:42.548
    00:59:15.469                             : :00:59:15.469
    01:05:01.189                             : :01:05:01.189
    01:09:42.053                             : :01:09:42.053
    01:15:24.854                             : :01:15:24.729
    01:19:25.928                             : :01:19:25.928
    01:26:20.175                             : :01:26:20.175

  • Peso: 2.90 GiB

Sinopsis

Dando la nota vuelve con más música y más coreografías espectaculares. Tercera parte de la exitosa franquicia musical sobre las aventuras de las componentes femeninas del grupo de música a capella llamado The Barden Bellas.

Ficha técnica

Video trailer de la película

Enlaces de descarga

Rip de Bluray

Descargar Pitch Perfect 3 (2017) 1080p Latino




Aportes de DPeliculasHDmega la pass es:dpeliculashdmega.org Aportes de CinemaniaHD la pass es:cinemaniahdd.com
Guardado en : Comedia , Música

Películas relacionadas

  • Dude (2018) NF 1080p Latino

    2018
    Dude (2018) NF 1080p Latino

    0.0 1h 30m 2018

    Cuatro mejores amigas se tienen que enfrentar a su nueva vida. Las dos últimas semanas de instituto...

    Director: Olivia Milch

    Género: Comedia

    Actores: Sydney Lucas

  • Gun shy (2017) 1080p Latino

    2017
    Gun shy (2017) 1080p Latino

    0.0 1h 31m 2017

    Basada en la novela homónima de Mark Haskell Smith. Turk Henry es una antigua estrella de rock con sobrepeso...

    Director: Simon West

    Género: Acción

    Actores: Sebastián Apiolaza

  • Se dice de mí (2010) Full 1080p Latino

    2010
    Se dice de mí (2010) Full 1080p Latino

    5.0 1 h 32 min 2010

    El guión, obra del dramaturgo Bert V. Royal, es una versión moderna y en clave estudiantil de “La...

    Director: Will Sandoval

    Género: Comedia

    Actores: Zack Kennedy

  • Rebeldes con causa (2007) Full 1080p Latino

    2007
    Rebeldes con causa (2007) Full 1080p Latino

    5.0 1h 39m 2007

    Cuatro amigos de mediana edad (Travolta, Allen, Lawrence y H. Macy), entusiastas de las motos, deciden...

    Director: Walt Becker

    Género: Acción

    Actores: William H. Macy

  • Marley y yo (2008) Full 1080p Latino

    2008
    Marley y yo (2008) Full 1080p Latino

    5.0 1 h 55 min 2008

    Los recién casados John y Jenny Grogan deciden dejar atrás los duros inviernos de Michigan para instalarse...

    Director: Sheila Waldron

    Género: Comedia

    Actores: Zabryna Guevara

Comentarios 0