Rings (2017) Full 1080p Latino

3.530 vistas
1 estrella2 estrellas3 estrellas4 estrellas5 estrellas (3 votos, promedio: 3,00 de 5)
Cargando…

Información de Rings (2017) Full 1080p Latino

el aro 3

Datos de la película

  • Calidad: Full 1080p
  • Audio: Español Latino AC3 5.1 BLURAY - Ingles DTS 5.1 BLURAY
  • Subtitulos: Español Latino PGS - Ingles PGS
  • Resolución: 1920x1080p
  • Formato: MKV
  • Codec: H.264
  • Encoder: Dpelis
  • Mediainfo: Clic para Mostrar Datos Ver
  • Rings 2017 HD FULL 1080p Latino.mkv
    Format                      : Matroska
    Format version              : Version 4 / Version 2
    File size                   : 5.68 GiB
    Duration                    : 1 h 42 min
    Overall bit rate            : 7 955 kb/s
    Movie name                  : DPeliculasHDMega.ORG
    Encoded date                : UTC 2017-04-23 15:19:18
    Writing application         : mkvmerge v10.0.0 ('To Drown In You') 64bit
    Writing library             : libebml v1.3.4 + libmatroska v1.4.5

    Video
    ID                          : 1
    Format                      : AVC
    Format/Info                 : Advanced Video Codec
    Format profile              : [email protected]
    Format settings, CABAC      : Yes
    Format settings, ReFrames   : 4 frames
    Codec ID                    : V_MPEG4/ISO/AVC
    Duration                    : 1 h 42 min
    Bit rate                    : 5 791 kb/s
    Width                       : 1 920 pixels
    Height                      : 1 080 pixels
    Display aspect ratio        : 16:9
    Frame rate mode             : Constant
    Frame rate                  : 23.976 (24000/1001) FPS
    Color space                 : YUV
    Chroma subsampling          : 4:2:0
    Bit depth                   : 8 bits
    Scan type                   : Progressive
    Bits/(Pixel*Frame)          : 0.116
    Stream size                 : 4.13 GiB (73%)
    Writing library             : x264 core 148 r2708 86b7198
    Encoding settings           : cabac=1 / ref=4 / deblock=1:0:0 / analyse=0x3:0x133 / me=esa / subme=10 / psy=1 / psy_rd=1.00:0.00 / mixed_ref=1 / me_range=24 / chroma_me=1 / trellis=2 / 8x8dct=1 / cqm=0 / deadzone=21,11 / fast_pskip=1 / chroma_qp_offset=-2 / threads=12 / lookahead_threads=2 / sliced_threads=0 / nr=0 / decimate=1 / interlaced=0 / bluray_compat=0 / constrained_intra=0 / bframes=8 / b_pyramid=2 / b_adapt=2 / b_bias=0 / direct=3 / weightb=1 / open_gop=0 / weightp=2 / keyint=240 / keyint_min=24 / scenecut=40 / intra_refresh=0 / rc_lookahead=60 / rc=crf / mbtree=1 / crf=20.0 / qcomp=0.60 / qpmin=0 / qpmax=69 / qpstep=4 / vbv_maxrate=62500 / vbv_bufsize=78125 / crf_max=0.0 / nal_hrd=none / filler=0 / ip_ratio=1.40 / aq=1:1.00
    Default                     : Yes
    Forced                      : No
    Color range                 : Limited
    Color primaries             : BT.709
    Transfer characteristics    : BT.709
    Matrix coefficients         : BT.709

    Audio #1
    ID                          : 2
    Format                      : AC-3
    Format/Info                 : Audio Coding 3
    Format settings, Endianness : Big
    Codec ID                    : A_AC3
    Duration                    : 1 h 42 min
    Bit rate mode               : Constant
    Bit rate                    : 640 kb/s
    Channel(s)                  : 6 channels
    Channel positions           : Front: L C R, Side: L R, LFE
    Sampling rate               : 48.0 kHz
    Frame rate                  : 31.250 FPS (1536 spf)
    Bit depth                   : 16 bits
    Compression mode            : Lossy
    Delay relative to video     : 22 ms
    Stream size                 : 468 MiB (8%)
    Language                    : Spanish
    Service kind                : Complete Main
    Default                     : Yes
    Forced                      : No

    Audio #2
    ID                          : 3
    Format                      : DTS
    Format/Info                 : Digital Theater Systems
    Mode                        : 16
    Format settings, Endianness : Big
    Codec ID                    : A_DTS
    Duration                    : 1 h 42 min
    Bit rate mode               : Constant
    Bit rate                    : 1 509 kb/s
    Channel(s)                  : 6 channels
    Channel positions           : Front: L C R, Side: L R, LFE
    Sampling rate               : 48.0 kHz
    Frame rate                  : 93.750 FPS (512 spf)
    Bit depth                   : 24 bits
    Compression mode            : Lossy
    Stream size                 : 1.08 GiB (19%)
    Language                    : English
    Default                     : No
    Forced                      : No

    Text #1
    ID                          : 4
    Format                      : PGS
    Muxing mode                 : zlib
    Codec ID                    : S_HDMV/PGS
    Codec ID/Info               : Picture based subtitle format used on BDs/HD-DVDs
    Duration                    : 1 h 37 min
    Bit rate                    : 6 010 b/s
    Count of elements           : 1560
    Stream size                 : 4.19 MiB (0%)
    Language                    : Spanish
    Default                     : Yes
    Forced                      : No

    Text #2
    ID                          : 5
    Format                      : PGS
    Muxing mode                 : zlib
    Codec ID                    : S_HDMV/PGS
    Codec ID/Info               : Picture based subtitle format used on BDs/HD-DVDs
    Duration                    : 1 h 36 min
    Bit rate                    : 6 009 b/s
    Count of elements           : 1524
    Stream size                 : 4.13 MiB (0%)
    Language                    : English
    Default                     : No
    Forced                      : No

    Menu
    00:00:00.000                : en:Chapter 1
    00:08:42.731                : en:Chapter 2
    00:15:28.136                : en:Chapter 3
    00:20:39.989                : en:Chapter 4
    00:25:25.190                : en:Chapter 5
    00:32:55.182                : en:Chapter 6
    00:39:17.188                : en:Chapter 7
    00:48:53.722                : en:Chapter 8
    00:55:06.929                : en:Chapter 9
    01:00:24.371                : en:Chapter 10
    01:07:38.221                : en:Chapter 11
    01:18:21.113                : en:Chapter 12
    01:31:47.210                : en:Chapter 13
    01:36:36.958                : en:Chapter 14

  • Peso: 5.68 GB

Sinopsis

Rings 1080p latino es una película estadounidense de terror psicológico sobrenatural, dirigida por F. Javier Gutiérrez y escrita por David Loucka, Jacob Aaron Estes y Akiva Goldsman. Esta es la tercera película de la serie estadounidense basada en la película de terror japonesa Ringu, después de The Ring y The Ring Two. La película está producida por Laurie MacDonald con la producción ejecutiva de Guillermo del Toro,3 y está protagonizada por Matilda Lutz, Alex Roe, Johnny Galecki y Aimee Teegarden. La película se estrenó el 3 de febrero de 2017 en Estados Unidos.
Julia (Matilda Lutz) preocupada por su novio, Holt (Alex Roe) que explorare leyenda urbana de un video misterioso que ve cassetta matar a nadie días Assicurare Au Bout septiembre Ella sacrificó novio sonido Versano Guardar y, por tanto, una terribile toma de Descubrimiento: Esta dirección de una “película dentro de la película” nadie ha visto nunca antes.

Ficha técnica

Video trailer de la película

Enlaces de descarga

Descargar Rings (2017) Full 1080p Latino

dpeliculas

Aportes de DPeliculasHDmega la pass es:dpeliculashdmega.org Aportes de CinemaniaHD la pass es:cinemaniahdd.com

Películas relacionadas

  • Dos policías rebeldes (1995) Full 1080p Latino

    1995
    Dos policías rebeldes (1995) Full 1080p Latino

    5.0 1 h 58 min 1995

    Un alijo de heroína valorada en unos 100 millones de dólares es robado del mismísimo depósito de...

    Director: Michael Bay

    Género: Acción

    Actores: Will Smith

  • Actos De Venganza (2017) Full 1080p Latino

    2017
    Actos De Venganza (2017) Full 1080p Latino

    5.0 1 h 27 min 2017

    Antonio Banderas se meterá en la piel de un abogado que sufre un tremendo trauma al perder a su mujer...

    Director: Isaac Florentine

    Género: Acción

    Actores: Robert Forster

  • Atrapado en el tiempo (1993) Full 1080p Latino

    1993
    Atrapado en el tiempo (1993) Full 1080p Latino

    5.0 1h 41m 1993

    Phil, hombre del tiempo de una cadena de televisión, es enviado un año más a Punxstawnwey, a cubrir...

    Director: Sam Hoffman

    Género: Comedia

    Actores: Willie Garson

  • Las horas más oscuras (2017) Full 1080p Latino

    2017
    Las horas más oscuras (2017) Full 1080p Latino

    5.0 2 h 4 min 2017

    Gran Bretaña, Segunda Guerra Mundial. Pocos días después de convertirse en Primer Ministro, Winston...

    Director: Phoebe Billington

    Género: Drama

    Actores: Tom Ashley

Comentarios 0