Soy leyenda (2007) [Final Alternativo] Full 1080p Subtitulada

752 vistas
1 estrella2 estrellas3 estrellas4 estrellas5 estrellas (1 votos, promedio: 5,00 de 5)
Cargando…

Información de Soy leyenda (2007) [Final Alternativo] Full 1080p Subtitulada

Datos de la película

  • Calidad: Full 1080p
  • Audio: Ingles AC3 5.1 BLURAY
  • Subtitulos: Español Latino PGS
  • Resolución: 1920X1080p
  • Formato: MKV
  • Codec: H.264
  • Encoder: Dracarys
  • Mediainfo: Clic para Mostrar Datos Ver
  • Format                                   : Matroska
    Format version                           : Version 4 / Version 2
    File size                                : 2.98 GiB
    Duration                                 : 1 h 43 min
    Overall bit rate                         : 4 110 kb/s
    Movie name                               : CinemaniaHDD.com
    Encoded date                             : UTC 2018-03-06 23:56:54 / UTC 2017-12-16T10:18:55Z
    Writing application                      : mkvmerge v15.0.0 ('Duel with the Devil') 64-bit
    Writing library                          : libebml v1.3.5 + libmatroska v1.4.5 / Lavf57.7.2

    Video
    ID                                       : 1
    Format                                   : AVC
    Format/Info                              : Advanced Video Codec
    Format profile                           : High@L4.1
    Format settings                          : CABAC / 4 Ref Frames
    Format settings, CABAC                   : Yes
    Format settings, RefFrames               : 4 frames
    Codec ID                                 : V_MPEG4/ISO/AVC
    Duration                                 : 1 h 43 min
    Bit rate                                 : 3 388 kb/s
    Width                                    : 1 920 pixels
    Height                                   : 1 080 pixels
    Display aspect ratio                     : 16:9
    Frame rate mode                          : Constant
    Frame rate                               : 23.976 (24000/1001) FPS
    Color space                              : YUV
    Chroma subsampling                       : 4:2:0
    Bit depth                                : 8 bits
    Scan type                                : Progressive
    Bits/(Pixel*Frame)                       : 0.068
    Stream size                              : 2.46 GiB (82%)
    Title                                    : Soy leyenda (2007) [Final Alternativo] Full 1080p Latino
    Writing library                          : x264 core 148 r2708 86b7198
    Encoding settings                        : cabac=1 / ref=4 / deblock=1:0:0 / analyse=0x3:0x133 / me=esa / subme=10 / psy=1 / psy_rd=1.00:0.00 / mixed_ref=1 / me_range=24 / chroma_me=1 / trellis=2 / 8x8dct=1 / cqm=0 / deadzone=21,11 / fast_pskip=1 / chroma_qp_offset=-2 / threads=34 / lookahead_threads=5 / sliced_threads=0 / nr=0 / decimate=1 / interlaced=0 / bluray_compat=0 / constrained_intra=0 / bframes=8 / b_pyramid=2 / b_adapt=2 / b_bias=0 / direct=3 / weightb=1 / open_gop=0 / weightp=2 / keyint=240 / keyint_min=24 / scenecut=40 / intra_refresh=0 / rc_lookahead=60 / rc=crf / mbtree=1 / crf=20.0 / qcomp=0.60 / qpmin=0 / qpmax=69 / qpstep=4 / vbv_maxrate=62500 / vbv_bufsize=78125 / crf_max=0.0 / nal_hrd=none / filler=0 / ip_ratio=1.40 / aq=1:1.00
    Language                                 : English
    Default                                  : Yes
    Forced                                   : No
    Color range                              : Limited
    Color primaries                          : BT.709
    Transfer characteristics                 : BT.709
    Matrix coefficients                      : BT.709
    Statistics Tags Issue                    : mkvmerge v15.0.0 ('Duel with the Devil') 64-bit 2018-03-06 23:56:54 / mkvmerge v15.0.0 ('Duel with the Devil') 64-bit 2018-03-06 23:56:54 / UTC 2017-12-16T10:18:55Z
    FromStats_BitRate                        : 3456929
    FromStats_Duration                       : 01:43:54.270000000
    FromStats_FrameCount                     : 149473
    FromStats_StreamSize                     : 2693928635

    Audio
    ID                                       : 2
    Format                                   : AC-3
    Format/Info                              : Audio Coding 3
    Format settings, Endianness              : Big
    Codec ID                                 : A_AC3
    Duration                                 : 1 h 43 min
    Bit rate mode                            : Constant
    Bit rate                                 : 640 kb/s
    Channel(s)                               : 6 channels
    Channel positions                        : Front: L C R, Side: L R, LFE
    Sampling rate                            : 48.0 kHz
    Frame rate                               : 31.250 FPS (1536 SPF)
    Bit depth                                : 16 bits
    Compression mode                         : Lossy
    Stream size                              : 476 MiB (16%)
    Language                                 : English
    Service kind                             : Complete Main
    Default                                  : Yes
    Forced                                   : No
    Statistics Tags Issue                    : mkvmerge v15.0.0 ('Duel with the Devil') 64-bit 2018-03-06 23:56:54 / mkvmerge v15.0.0 ('Duel with the Devil') 64-bit 2018-03-06 23:56:54 / UTC 2017-12-16T10:18:55Z
    FromStats_BitRate                        : 640000
    FromStats_Duration                       : 01:43:54.272000000
    FromStats_FrameCount                     : 194821
    FromStats_StreamSize                     : 498741760

    Text #1
    ID                                       : 3
    Format                                   : UTF-8
    Codec ID                                 : S_TEXT/UTF8
    Codec ID/Info                            : UTF-8 Plain Text
    Title                                    : SRT
    Language                                 : Spanish
    Default                                  : Yes
    Forced                                   : No
    Statistics Tags Issue                    : mkvmerge v15.0.0 ('Duel with the Devil') 64-bit 2018-03-06 23:56:54 / mkvmerge v15.0.0 ('Duel with the Devil') 64-bit 2018-03-06 23:56:54 / UTC 2017-12-16T10:18:55Z
    FromStats_BitRate                        : 29
    FromStats_Duration                       : 01:35:08.252000000
    FromStats_FrameCount                     : 658
    FromStats_StreamSize                     : 21215

    Text #2
    ID                                       : 4
    Format                                   : PGS
    Muxing mode                              : zlib
    Codec ID                                 : S_HDMV/PGS
    Codec ID/Info                            : Picture based subtitle format used on BDs/HD-DVDs
    Title                                    : PGS
    Language                                 : Spanish
    Default                                  : No
    Forced                                   : No
    Statistics Tags Issue                    : mkvmerge v15.0.0 ('Duel with the Devil') 64-bit 2018-03-06 23:56:54 / mkvmerge v15.0.0 ('Duel with the Devil') 64-bit 2018-03-06 23:56:54 / UTC 2017-12-16T10:18:55Z
    FromStats_BitRate                        : 27734
    FromStats_Duration                       : 01:35:08.250000000
    FromStats_FrameCount                     : 1316
    FromStats_StreamSize                     : 19789570

  • Peso: 2.98 GiB

Sinopsis

Año 2012. Robert Neville es el último hombre vivo que hay sobre la Tierra, pero no está solo. Los demás seres humanos se han convertido en unos mutantes nocturnos llamados “Darkseekers” y todos ansían beber su sangre. Durante el día vive en estado de alerta, como un cazador, y busca a los muertos vivientes mientras duermen; pero durante la noche debe esconderse de ellos y esperar el amanecer. Esta pesadilla empezó hace tres años: Neville era un brillante científico, pero no pudo impedir la expansión de un terrible virus creado por el hombre. Él ha sobrevivido porque es inmune al virus; todos los días envía mensajes por radio con la esperanza de que haya otros supervivientes, pero es inútil. Lo único que puede hacer es buscar una fórmula que le permita utilizar su sangre inmune para devolverles a los hombres su naturaleza. Pero está en inferioridad de condiciones y el tiempo se acaba.

 

Nota. Por error puse en el MKV “Latino” pero en realidad es Subtitulada

Ficha técnica

Video trailer de la película

Enlaces de descarga

Rip de Bluray

Descargar Soy leyenda (2007) [Final Alternativo] Full 1080p Subtitulada




Aportes de DPeliculasHDmega la pass es:dpeliculashdmega.org Aportes de CinemaniaHD la pass es:cinemaniahdd.com

Películas relacionadas

  • A Ghost Story (2017) 1080p Latino

    2017
    A Ghost Story (2017) 1080p Latino

    0.0 1h 27m 2017

    Un hombre recientemente fallecido regresa a su casa como un fantasma vestido con una sábana blanca para...

    Director: David Lowery

    Género: Drama

    Actores: Yasmina Gutierrez

  • Bushwick (2017) 1080p Latino

    2017
    Bushwick (2017) 1080p Latino

    5.0 1h 34m 2017

    Cuando Lucy sale del metro en Bushwick, el último barrio de moda de Nueva York, no encuentra ni hipsters...

    Director: Jonathan Milott

    Género: Acción

    Actores: Myra Lucretia Taylor

  • Gun shy (2017) 1080p Latino

    2017
    Gun shy (2017) 1080p Latino

    0.0 1h 31m 2017

    Basada en la novela homónima de Mark Haskell Smith. Turk Henry es una antigua estrella de rock con sobrepeso...

    Director: Simon West

    Género: Acción

    Actores: Sebastián Apiolaza

  • Deep Blue Sea 2 (2018) 1080p Latino

    2018
    Deep Blue Sea 2 (2018) 1080p Latino

    5.0 1h 34m 2018

    La Doctora Misty Calhoun, conservacionista de tiburones, es invitada para asesorar un proyecto secreto...

    Director: Darin Scott

    Género: Acción

    Actores: Rob Mayes

  • Maze Runner prueba de fuego (2015) Full 1080p Latino

    2015
    Maze Runner prueba de fuego (2015) Full 1080p Latino

    5.0 2 h 11 min 2015

    En este nuevo capítulo de la trepidante saga "El Corredor del Laberinto", Thomas (Dylan O'Brien) y el...

    Director: Wes Ball

    Género: Acción

    Actores: Thomas Brodie-Sangster

Comentarios 0