Thank You for Your Service (2017) WEB-DL 1080p Latino

695 vistas
1 estrella2 estrellas3 estrellas4 estrellas5 estrellas (Ninguna valoración todavía)
Cargando…

Información de Thank You for Your Service (2017) WEB-DL 1080p Latino

Datos de la película

  • Calidad: WEBDL
  • Audio: Español Latino AC3 2.0 iTunes - Ingles AC3 5.1 iTunes
  • Subtitulos: Español Latino SRT- FORZADOS SRT
  • Resolución: 1916X796p
  • Formato: MKV
  • Codec: H.264
  • Encoder: CinemaniaHD
  • Mediainfo: Clic para Mostrar Datos Ver
  • Format                                   : Matroska
    Format version                           : Version 4 / Version 2
    File size                                : 3.96 GiB
    Duration                                 : 1 h 48 min
    Overall bit rate                         : 5 198 kb/s
    Movie name                               : CinemaniaHDD.com
    Encoded date                             : UTC 2018-01-09 07:20:35
    Writing application                      : mkvmerge v15.0.0 ('Duel with the Devil') 64-bit
    Writing library                          : libebml v1.3.5 + libmatroska v1.4.5

    Video
    ID                                       : 1
    Format                                   : AVC
    Format/Info                              : Advanced Video Codec
    Format profile                           : High@L4
    Format settings                          : CABAC / 5 Ref Frames
    Format settings, CABAC                   : Yes
    Format settings, RefFrames               : 5 frames
    Codec ID                                 : V_MPEG4/ISO/AVC
    Duration                                 : 1 h 48 min
    Bit rate                                 : 4 619 kb/s
    Width                                    : 1 916 pixels
    Height                                   : 796 pixels
    Display aspect ratio                     : 2.40:1
    Frame rate mode                          : Constant
    Frame rate                               : 23.976 (23976/1000) FPS
    Color space                              : YUV
    Chroma subsampling                       : 4:2:0
    Bit depth                                : 8 bits
    Scan type                                : Progressive
    Bits/(Pixel*Frame)                       : 0.126
    Stream size                              : 3.52 GiB (89%)
    Title                                    : file:///C:/Users/andres/Desktop/Thank You for Your Service (2017).track_1.ac3
    Language                                 : English
    Default                                  : Yes
    Forced                                   : No
    Color range                              : Limited
    Color primaries                          : BT.709
    Transfer characteristics                 : BT.709
    Matrix coefficients                      : BT.709

    Audio #1
    ID                                       : 2
    Format                                   : AC-3
    Format/Info                              : Audio Coding 3
    Format settings, Endianness              : Big
    Codec ID                                 : A_AC3
    Duration                                 : 1 h 48 min
    Bit rate mode                            : Constant
    Bit rate                                 : 192 kb/s
    Channel(s)                               : 2 channels
    Channel positions                        : Front: L R
    Sampling rate                            : 48.0 kHz
    Frame rate                               : 31.250 FPS (1536 SPF)
    Bit depth                                : 16 bits
    Compression mode                         : Lossy
    Delay relative to video                  : -42 ms
    Stream size                              : 150 MiB (4%)
    Language                                 : Spanish
    Service kind                             : Complete Main
    Default                                  : Yes
    Forced                                   : No

    Audio #2
    ID                                       : 3
    Format                                   : AC-3
    Format/Info                              : Audio Coding 3
    Format settings, Endianness              : Big
    Codec ID                                 : A_AC3
    Duration                                 : 1 h 48 min
    Bit rate mode                            : Constant
    Bit rate                                 : 384 kb/s
    Channel(s)                               : 6 channels
    Channel positions                        : Front: L C R, Side: L R, LFE
    Sampling rate                            : 48.0 kHz
    Frame rate                               : 31.250 FPS (1536 SPF)
    Bit depth                                : 16 bits
    Compression mode                         : Lossy
    Delay relative to video                  : -42 ms
    Stream size                              : 299 MiB (7%)
    Language                                 : English
    Service kind                             : Complete Main
    Default                                  : No
    Forced                                   : No

    Text #1
    ID                                       : 4
    Format                                   : UTF-8
    Codec ID                                 : S_TEXT/UTF8
    Codec ID/Info                            : UTF-8 Plain Text
    Duration                                 : 1 h 19 min
    Bit rate                                 : 0 b/s
    Count of elements                        : 15
    Stream size                              : 445 Bytes (0%)
    Title                                    : Forzados
    Language                                 : Spanish
    Default                                  : Yes
    Forced                                   : Yes

    Text #2
    ID                                       : 5
    Format                                   : UTF-8
    Codec ID                                 : S_TEXT/UTF8
    Codec ID/Info                            : UTF-8 Plain Text
    Duration                                 : 1 h 41 min
    Bit rate                                 : 50 b/s
    Count of elements                        : 1248
    Stream size                              : 37.8 KiB (0%)
    Language                                 : Spanish
    Default                                  : No
    Forced                                   : No

    Text #3
    ID                                       : 6
    Format                                   : UTF-8
    Codec ID                                 : S_TEXT/UTF8
    Codec ID/Info                            : UTF-8 Plain Text
    Duration                                 : 1 h 40 min
    Bit rate                                 : 48 b/s
    Count of elements                        : 1364
    Stream size                              : 36.0 KiB (0%)
    Language                                 : English
    Default                                  : No
    Forced                                   : No

    Menu
    00:00:00.000                             : en:1
    00:05:55.397                             : en:2
    00:13:10.081                             : en:3
    00:18:47.668                             : en:4
    00:22:52.371                             : en:5
    00:28:07.602                             : en:6
    00:35:26.916                             : en:7
    00:39:10.681                             : en:8
    00:45:48.245                             : en:9
    00:49:54.491                             : en:10
    00:52:07.290                             : en:11
    00:57:44.210                             : en:12
    01:04:08.093                             : en:13
    01:11:22.569                             : en:14
    01:16:42.597                             : en:15
    01:21:40.686                             : en:16
    01:26:15.877                             : en:17
    01:32:19.740                             : en:18
    01:41:06.558                             : en:19
    01:42:59.587                             : en:20

     

  • Peso: 3.96 GiB

Sinopsis

Tres soldados estadounidenses regresan de Irak tratando de reintegrarse con sus familias, y adaptándose a la vida civil mientras luchan por olvidar sus duros recuerdos de la guerra.

Ficha técnica

  • Titulo original: Thank You for Your Service
  • Fecha de lanzamiento: 26-10-2017 (United States of America)
  • Director: Jason Hall, Scott Peterson
  • Género: Drama, Guerra
  • Puntuación: 0.0 0 votos
  • Duración:
    1 h 48 min

Video trailer de la película

Enlaces de descarga

Rip de Bluray

Descargar Thank You for Your Service (2017) WEB-DL 1080p Latino




Aportes de DPeliculasHDmega la pass es:dpeliculashdmega.org Aportes de CinemaniaHD la pass es:cinemaniahdd.com
Guardado en : Drama , Guerra

Películas relacionadas

  • A Ghost Story (2017) 1080p Latino

    2017
    A Ghost Story (2017) 1080p Latino

    5.0 1h 27m 2017

    Un hombre recientemente fallecido regresa a su casa como un fantasma vestido con una sábana blanca para...

    Director: David Lowery

    Género: Drama

    Actores: Yasmina Gutierrez

  • Milagros inesperados (1999) Full 1080p Latino

    1999
    Milagros inesperados (1999) Full 1080p Latino

    5.0 3h 9m 1999

    En el sur de los Estados Unidos, en plena Depresión, Paul Edgecomb es un vigilante penitenciario a cargo...

    Director: Susan Malerstein

    Género: Crimen

    Actores: William Sadler

  • La terminal (2004) Full 1080p Latino

    2004
    La terminal (2004) Full 1080p Latino

    5.0 2 h 8 min 2004

    Basado en hechos reales, Viktor Navorski (Tom Hanks) es un inmigrante balcánico que, al estallar la...

    Director: Steven Spielberg

    Género: Comedia

    Actores: Zoe Saldana

  • La invención de Cronos (1993) Full 1080p Latino

    1993
    La invención de Cronos (1993) Full 1080p Latino

    0.0 1 h 32 min 1993

    Cronos es un artefacto creado por un alquimista medieval, en cuyo interior se encuentra instalado un...

    Director: Guillermo del Toro

    Género: Drama

    Actores: Tamara Shanath

Comentarios 0