The Bourne Ultimátum (2007) Full 1080p Latino

865 vistas
1 estrella2 estrellas3 estrellas4 estrellas5 estrellas (2 votos, promedio: 5,00 de 5)
Cargando…

Información de The Bourne Ultimátum (2007) Full 1080p Latino

Datos de la película

  • Calidad: Full 1080p
  • Audio: Español Latino DTS 5.1 BLURAY - Ingles DTS 5.1 BLURAY
  • Subtitulos: Español Latino PGS - Ingles PGS
  • Resolución: 1920X1080
  • Formato: MKV
  • Codec: H.264
  • Encoder: Dpelis
  • Mediainfo: Clic para Mostrar Datos Ver
  • Format                                   : Matroska
    Format version                           : Version 4 / Version 2
    File size                                : 8.34 GiB
    Duration                                 : 1 h 55 min
    Overall bit rate                         : 10.4 Mb/s
    Movie name                               : dpeliculashdmega,org
    Encoded date                             : UTC 2017-11-17 04:26:38 / UTC 2017-11-15T18:29:52Z
    Writing application                      : mkvmerge v15.0.0 ('Duel with the Devil') 64-bit
    Writing library                          : libebml v1.3.5 + libmatroska v1.4.5 / Lavf57.7.2

    Video
    ID                                       : 1
    Format                                   : AVC
    Format/Info                              : Advanced Video Codec
    Format profile                           : High@L4.1
    Format settings                          : CABAC / 4 Ref Frames
    Format settings, CABAC                   : Yes
    Format settings, RefFrames               : 4 frames
    Codec ID                                 : V_MPEG4/ISO/AVC
    Duration                                 : 1 h 55 min
    Bit rate                                 : 7 872 kb/s
    Width                                    : 1 920 pixels
    Height                                   : 1 080 pixels
    Display aspect ratio                     : 16:9
    Frame rate mode                          : Constant
    Frame rate                               : 23.976 (24000/1001) FPS
    Color space                              : YUV
    Chroma subsampling                       : 4:2:0
    Bit depth                                : 8 bits
    Scan type                                : Progressive
    Bits/(Pixel*Frame)                       : 0.158
    Stream size                              : 6.34 GiB (76%)
    Title                                    : The Bourne Ultimátum (2007) Full 1080p Latino
    Writing library                          : x264 core 148 r2708 86b7198
    Encoding settings                        : cabac=1 / ref=4 / deblock=1:0:0 / analyse=0x3:0x133 / me=esa / subme=10 / psy=1 / psy_rd=1.00:0.00 / mixed_ref=1 / me_range=24 / chroma_me=1 / trellis=2 / 8x8dct=1 / cqm=0 / deadzone=21,11 / fast_pskip=1 / chroma_qp_offset=-2 / threads=34 / lookahead_threads=5 / sliced_threads=0 / nr=0 / decimate=1 / interlaced=0 / bluray_compat=0 / constrained_intra=0 / bframes=8 / b_pyramid=2 / b_adapt=2 / b_bias=0 / direct=3 / weightb=1 / open_gop=0 / weightp=2 / keyint=240 / keyint_min=24 / scenecut=40 / intra_refresh=0 / rc_lookahead=60 / rc=crf / mbtree=1 / crf=20.0 / qcomp=0.60 / qpmin=0 / qpmax=69 / qpstep=4 / vbv_maxrate=62500 / vbv_bufsize=78125 / crf_max=0.0 / nal_hrd=none / filler=0 / ip_ratio=1.40 / aq=1:1.00
    Language                                 : English
    Default                                  : Yes
    Forced                                   : No
    Color range                              : Limited
    Color primaries                          : BT.709
    Transfer characteristics                 : BT.709
    Matrix coefficients                      : BT.709
    Statistics Tags Issue                    : mkvmerge v15.0.0 ('Duel with the Devil') 64-bit 2017-11-17 04:26:38 / mkvmerge v15.0.0 ('Duel with the Devil') 64-bit 2017-11-17 04:26:38 / UTC 2017-11-15T18:29:52Z
    FromStats_BitRate                        : 8067268
    FromStats_Duration                       : 01:55:13.907000000
    FromStats_FrameCount                     : 165768
    FromStats_StreamSize                     : 6972043386

    Audio #1
    ID                                       : 2
    Format                                   : DTS
    Format/Info                              : Digital Theater Systems
    Mode                                     : 16
    Format settings, Endianness              : Big
    Codec ID                                 : A_DTS
    Duration                                 : 1 h 55 min
    Bit rate mode                            : Constant
    Bit rate                                 : 768 kb/s
    Channel(s)                               : 6 channels
    Channel positions                        : Front: L C R, Side: L R, LFE
    Sampling rate                            : 48.0 kHz
    Frame rate                               : 93.750 FPS (512 SPF)
    Bit depth                                : 24 bits
    Compression mode                         : Lossy
    Stream size                              : 633 MiB (7%)
    Title                                    : Latino-DTS
    Language                                 : Spanish
    Default                                  : Yes
    Forced                                   : No
    Statistics Tags Issue                    : mkvmerge v15.0.0 ('Duel with the Devil') 64-bit 2017-11-17 04:26:38 / mkvmerge v15.0.0 ('Duel with the Devil') 64-bit 2017-11-17 04:26:38 / UTC 2017-11-15T18:29:52Z
    FromStats_BitRate                        : 767999
    FromStats_Duration                       : 01:55:19.382000000
    FromStats_FrameCount                     : 648692
    FromStats_StreamSize                     : 664260608

    Audio #2
    ID                                       : 3
    Format                                   : DTS
    Format/Info                              : Digital Theater Systems
    Mode                                     : 16
    Format settings, Endianness              : Big
    Codec ID                                 : A_DTS
    Duration                                 : 1 h 55 min
    Bit rate mode                            : Constant
    Bit rate                                 : 1 509 kb/s
    Channel(s)                               : 6 channels
    Channel positions                        : Front: L C R, Side: L R, LFE
    Sampling rate                            : 48.0 kHz
    Frame rate                               : 93.750 FPS (512 SPF)
    Bit depth                                : 24 bits
    Compression mode                         : Lossy
    Stream size                              : 1.22 GiB (15%)
    Title                                    : Ingles-DTS
    Language                                 : English
    Default                                  : No
    Forced                                   : No
    Statistics Tags Issue                    : mkvmerge v15.0.0 ('Duel with the Devil') 64-bit 2017-11-17 04:26:38 / mkvmerge v15.0.0 ('Duel with the Devil') 64-bit 2017-11-17 04:26:38 / UTC 2017-11-15T18:29:52Z
    FromStats_BitRate                        : 1508999
    FromStats_Duration                       : 01:55:13.910000000
    FromStats_FrameCount                     : 648179
    FromStats_StreamSize                     : 1304136148

    Text #1
    ID                                       : 4
    Format                                   : PGS
    Muxing mode                              : zlib
    Codec ID                                 : S_HDMV/PGS
    Codec ID/Info                            : Picture based subtitle format used on BDs/HD-DVDs
    Title                                    : PGS-Forzados
    Language                                 : Spanish
    Default                                  : Yes
    Forced                                   : No
    Statistics Tags Issue                    : mkvmerge v15.0.0 ('Duel with the Devil') 64-bit 2017-11-17 04:26:38 / mkvmerge v15.0.0 ('Duel with the Devil') 64-bit 2017-11-17 04:26:38 / UTC 2017-11-15T18:29:52Z
    FromStats_BitRate                        : 2062
    FromStats_Duration                       : 01:44:31.182000000
    FromStats_FrameCount                     : 171
    FromStats_StreamSize                     : 1616626

    Text #2
    ID                                       : 5
    Format                                   : PGS
    Muxing mode                              : zlib
    Codec ID                                 : S_HDMV/PGS
    Codec ID/Info                            : Picture based subtitle format used on BDs/HD-DVDs
    Title                                    : PGS-Completos
    Language                                 : Spanish
    Default                                  : No
    Forced                                   : No
    Statistics Tags Issue                    : mkvmerge v15.0.0 ('Duel with the Devil') 64-bit 2017-11-17 04:26:38 / mkvmerge v15.0.0 ('Duel with the Devil') 64-bit 2017-11-17 04:26:38 / UTC 2017-11-15T18:29:52Z
    FromStats_BitRate                        : 21242
    FromStats_Duration                       : 01:45:15.935000000
    FromStats_FrameCount                     : 1786
    FromStats_StreamSize                     : 16770458

    Text #3
    ID                                       : 6
    Format                                   : PGS
    Muxing mode                              : zlib
    Codec ID                                 : S_HDMV/PGS
    Codec ID/Info                            : Picture based subtitle format used on BDs/HD-DVDs
    Title                                    : PGS
    Language                                 : English
    Default                                  : No
    Forced                                   : No
    Statistics Tags Issue                    : mkvmerge v15.0.0 ('Duel with the Devil') 64-bit 2017-11-17 04:26:38 / mkvmerge v15.0.0 ('Duel with the Devil') 64-bit 2017-11-17 04:26:38 / UTC 2017-11-15T18:29:52Z
    FromStats_BitRate                        : 29833
    FromStats_Duration                       : 01:45:17.811000000
    FromStats_FrameCount                     : 2038
    FromStats_StreamSize                     : 23559973

    Menu
    00:00:00.000                             : :Chapter 1
    00:04:02.242                             : :Chapter 2
    00:09:46.086                             : :Chapter 3
    00:13:57.295                             : :Chapter 4
    00:21:01.844                             : :Chapter 5
    00:27:51.753                             : :Chapter 6
    00:31:46.947                             : :Chapter 7
    00:38:44.280                             : :Chapter 8
    00:43:51.546                             : :Chapter 9
    00:50:02.791                             : :Chapter 10
    00:58:12.614                             : :Chapter 11
    01:05:35.849                             : :Chapter 12
    01:10:35.982                             : :Chapter 13
    01:15:49.587                             : :Chapter 14
    01:20:37.041                             : :Chapter 15
    01:25:08.270                             : :Chapter 16
    01:31:34.781                             : :Chapter 17
    01:35:58.253                             : :Chapter 18
    01:42:11.792                             : :Chapter 19
    01:46:07.361                             : :Chapter 20

  • Peso: 8.34 GiB

Sinopsis

Jason Bourne sigue investigando quién es y qué hay realmente detrás del programa secreto de la CIA llamado Treadstone. Ahora un reportero británico de “The Guardian” le pone sobre una nueva pista con el nombre de Blackbriar. Bourne dará con él en Londres, en un intento de encajar las últimas piezas de ese pasado que él aún intenta recuperar.

Ficha técnica

Video trailer de la película

Enlaces de descarga

Rip de Bluray

Descargar The Bourne Ultimátum (2007) Full 1080p Latino




Aportes de DPeliculasHDmega la pass es:dpeliculashdmega.org Aportes de CinemaniaHD la pass es:cinemaniahdd.com

Películas relacionadas

  • Niños del hombre (2006) Full 1080p Latino

    2006
    Niños del hombre (2006) Full 1080p Latino

    0.0 1 h 49 min 2006

    Año 2027: el ser humano está al borde de la extinción: los hombres han perdido la capacidad de procrear...

    Director: Terry Needham

    Género: Acción

    Actores: Yolanda Vazquez

  • Amateur (2018) NF Webrip 1080p Latino

    2018
    Amateur (2018) NF Webrip 1080p Latino

    0.0 1h 36m 2018

    Un joven jugador de baloncesto se enfrenta a las dificultades de encajar en el nuevo equipo. Adaptación...

    Director: Ryan Koo

    Género: Drama

    Actores: Tekola Cornetet

  • Winchester (2018) 1080p Latino

    2018
    Winchester (2018) 1080p Latino

    0.0 1h 39m 2018

    A finales del siglo XIX, después de la trágica muerte de su marido y su hijo, Sarah construye una casa-fortaleza...

    Director: Peter Spierig

    Género: Fantasía

    Actores: Xavier Gouault

  • Unlocked (2017) 1080p Latino

    2017
    Unlocked (2017) 1080p Latino

    3.0 1h 43m 2017

    Gira en torno a una agente de la CIA, especializada en interrogatorios, que es engañada por un sospechoso,...

    Director: Vera Homolacova

    Género: Acción

    Actores: Tosin Cole

Comentarios 12
  • Eduardo - 02 diciembre, 2017

    De casualidad subirán las otras dos películas de la saga que faltan?

    • Dpelis2 - 02 diciembre, 2017

      Claro en algunos dias mas

  • luis - 21 noviembre, 2017

    lo descargue de google drive

  • luis - 21 noviembre, 2017

    la parte 3 esta dañada

    • Dpelis2 - 21 noviembre, 2017

      seguier estos pasos… https://www.youtube.com/watch?v=0tjwIay51pU&t=62s

      • luis - 21 noviembre, 2017

        amigo segui los mismos pasos y no se puede

        • dpelis - 21 noviembre, 2017

          tiene winrar full ultima version? si es no, instalar la version full. saludos

        • Dpelis2 - 21 noviembre, 2017

          Amigo descarge pa pelicula de todos los servidores y esta todo perfecto. solo eres tu el que tiene ese problema!

          • luis - 21 noviembre, 2017

            todas las partes pesan 2gb a excepcion de la ultima parte pero la tercera parte no llega a2gb solo a 1.99gb por eso me sale la falla al desconprimir . soy nuevo en esto

            • dpelis - 22 noviembre, 2017

              bajar de otro servidor. saludos

  • criss - 18 noviembre, 2017

    hola. podrían subir también el Legado de Bourne, para completar la colección. Saludos

    • Dpelis2 pelis2 - 18 noviembre, 2017

      Viene luego Saludos