Thor: Ragnarok (2017) Full 1080p Latino

8.725 vistas
1 estrella2 estrellas3 estrellas4 estrellas5 estrellas (7 votos, promedio: 4,86 de 5)
Cargando…

Información de Thor: Ragnarok (2017) Full 1080p Latino

Datos de la película

  • Calidad: Full 1080p
  • Audio: Español Latino AC3 5.1 BLURAY - Ingles DTS 5.1 BLURAY
  • Subtitulos: Español Latino PGS - Ingles PGS
  • Resolución: 1920X1080p
  • Formato: MKV
  • Codec: H.264
  • Encoder: Dracarys
  • Mediainfo: Clic para Mostrar Datos Ver
  • Format                                   : Matroska
    Format version                           : Version 4 / Version 2
    File size                                : 6.02 GiB
    Duration                                 : 2 h 10 min
    Overall bit rate                         : 6 599 kb/s
    Movie name                               : CinemaniaHDD.com
    Encoded date                             : UTC 2018-02-22 00:02:33 / UTC 2018-02-21T21:42:45Z
    Writing application                      : mkvmerge v15.0.0 ('Duel with the Devil') 64-bit
    Writing library                          : libebml v1.3.5 + libmatroska v1.4.5 / Lavf57.7.2

    Video
    ID                                       : 1
    Format                                   : AVC
    Format/Info                              : Advanced Video Codec
    Format profile                           : High@L4.1
    Format settings                          : CABAC / 4 Ref Frames
    Format settings, CABAC                   : Yes
    Format settings, RefFrames               : 4 frames
    Codec ID                                 : V_MPEG4/ISO/AVC
    Duration                                 : 2 h 10 min
    Bit rate                                 : 4 318 kb/s
    Width                                    : 1 920 pixels
    Height                                   : 1 080 pixels
    Display aspect ratio                     : 16:9
    Frame rate mode                          : Constant
    Frame rate                               : 23.976 (24000/1001) FPS
    Color space                              : YUV
    Chroma subsampling                       : 4:2:0
    Bit depth                                : 8 bits
    Scan type                                : Progressive
    Bits/(Pixel*Frame)                       : 0.087
    Stream size                              : 3.94 GiB (65%)
    Title                                    : file:///C:/Users/andres/Desktop/Thor.track_2.dts_.dts
    Writing library                          : x264 core 148 r2708 86b7198
    Encoding settings                        : cabac=1 / ref=4 / deblock=1:0:0 / analyse=0x3:0x133 / me=esa / subme=9 / psy=1 / psy_rd=1.00:0.00 / mixed_ref=1 / me_range=16 / chroma_me=1 / trellis=2 / 8x8dct=1 / cqm=0 / deadzone=21,11 / fast_pskip=1 / chroma_qp_offset=-2 / threads=34 / lookahead_threads=2 / sliced_threads=0 / nr=0 / decimate=1 / interlaced=0 / bluray_compat=0 / constrained_intra=0 / bframes=3 / b_pyramid=2 / b_adapt=2 / b_bias=0 / direct=3 / weightb=1 / open_gop=0 / weightp=2 / keyint=240 / keyint_min=24 / scenecut=40 / intra_refresh=0 / rc_lookahead=60 / rc=crf / mbtree=1 / crf=20.0 / qcomp=0.60 / qpmin=0 / qpmax=69 / qpstep=4 / vbv_maxrate=62500 / vbv_bufsize=78125 / crf_max=0.0 / nal_hrd=none / filler=0 / ip_ratio=1.40 / aq=1:1.00
    Language                                 : English
    Default                                  : Yes
    Forced                                   : No
    Color range                              : Limited
    Color primaries                          : BT.709
    Transfer characteristics                 : BT.709
    Matrix coefficients                      : BT.709
    Statistics Tags Issue                    : mkvmerge v15.0.0 ('Duel with the Devil') 64-bit 2018-02-22 00:02:33 / mkvmerge v15.0.0 ('Duel with the Devil') 64-bit 2018-02-22 00:02:33 / UTC 2018-02-21T21:42:45Z
    FromStats_BitRate                        : 4425243
    FromStats_Duration                       : 02:10:30.698000000
    FromStats_FrameCount                     : 187749
    FromStats_StreamSize                     : 4331593037

    Audio #1
    ID                                       : 2
    Format                                   : AC-3
    Format/Info                              : Audio Coding 3
    Format settings, Endianness              : Big
    Codec ID                                 : A_AC3
    Duration                                 : 2 h 10 min
    Bit rate mode                            : Constant
    Bit rate                                 : 640 kb/s
    Channel(s)                               : 6 channels
    Channel positions                        : Front: L C R, Side: L R, LFE
    Sampling rate                            : 48.0 kHz
    Frame rate                               : 31.250 FPS (1536 SPF)
    Bit depth                                : 16 bits
    Compression mode                         : Lossy
    Stream size                              : 597 MiB (10%)
    Language                                 : Spanish
    Service kind                             : Complete Main
    Default                                  : Yes
    Forced                                   : No
    Statistics Tags Issue                    : mkvmerge v15.0.0 ('Duel with the Devil') 64-bit 2018-02-22 00:02:33 / mkvmerge v15.0.0 ('Duel with the Devil') 64-bit 2018-02-22 00:02:33 / UTC 2018-02-21T21:42:45Z
    FromStats_BitRate                        : 640000
    FromStats_Duration                       : 02:10:30.688000000
    FromStats_FrameCount                     : 244709
    FromStats_StreamSize                     : 626455040

    Audio #2
    ID                                       : 3
    Format                                   : DTS
    Format/Info                              : Digital Theater Systems
    Mode                                     : 16
    Format settings, Endianness              : Big
    Codec ID                                 : A_DTS
    Duration                                 : 2 h 10 min
    Bit rate mode                            : Constant
    Bit rate                                 : 1 509 kb/s
    Channel(s)                               : 6 channels
    Channel positions                        : Front: L C R, Side: L R, LFE
    Sampling rate                            : 48.0 kHz
    Frame rate                               : 93.750 FPS (512 SPF)
    Bit depth                                : 24 bits
    Compression mode                         : Lossy
    Stream size                              : 1.38 GiB (23%)
    Language                                 : English
    Default                                  : No
    Forced                                   : No
    Statistics Tags Issue                    : mkvmerge v15.0.0 ('Duel with the Devil') 64-bit 2018-02-22 00:02:33 / mkvmerge v15.0.0 ('Duel with the Devil') 64-bit 2018-02-22 00:02:33 / UTC 2018-02-21T21:42:45Z
    FromStats_BitRate                        : 1508999
    FromStats_Duration                       : 02:10:30.699000000
    FromStats_FrameCount                     : 734128
    FromStats_StreamSize                     : 1477065536

    Text #1
    ID                                       : 4
    Format                                   : PGS
    Muxing mode                              : zlib
    Codec ID                                 : S_HDMV/PGS
    Codec ID/Info                            : Picture based subtitle format used on BDs/HD-DVDs
    Language                                 : English
    Default                                  : No
    Forced                                   : No
    Statistics Tags Issue                    : mkvmerge v15.0.0 ('Duel with the Devil') 64-bit 2018-02-22 00:02:33 / mkvmerge v15.0.0 ('Duel with the Devil') 64-bit 2018-02-22 00:02:33 / UTC 2018-02-21T21:42:45Z
    FromStats_BitRate                        : 38115
    FromStats_Duration                       : 02:10:11.804000000
    FromStats_FrameCount                     : 4162
    FromStats_StreamSize                     : 37219308

    Text #2
    ID                                       : 5
    Format                                   : PGS
    Muxing mode                              : zlib
    Codec ID                                 : S_HDMV/PGS
    Codec ID/Info                            : Picture based subtitle format used on BDs/HD-DVDs
    Language                                 : Spanish
    Default                                  : No
    Forced                                   : No
    Statistics Tags Issue                    : mkvmerge v15.0.0 ('Duel with the Devil') 64-bit 2018-02-22 00:02:33 / mkvmerge v15.0.0 ('Duel with the Devil') 64-bit 2018-02-22 00:02:33 / UTC 2018-02-21T21:42:45Z
    FromStats_BitRate                        : 31452
    FromStats_Duration                       : 02:09:29.137000000
    FromStats_FrameCount                     : 3144
    FromStats_StreamSize                     : 30545146

    Menu
    00:00:00.000                             : :The Great Prophecy
    00:06:20.672                             : :The Tragedy Of Loki Of Asgard
    00:14:11.642                             : :A Worthy Inclusion
    00:22:12.873                             : :The Goddess Of Death
    00:26:43.060                             : :"Are You A Fighter, Or Are You Food?"
    00:31:29.721                             : :Heiress Apparent
    00:35:04.019                             : :The Grandmaster
    00:42:49.734                             : :The Eternal Flame
    00:48:31.617                             : :The Contest Of Champions
    00:59:38.867                             : :The Resistance
    01:07:57.907                             : :Hotheaded Fools
    01:17:30.604                             : :The Revengers
    01:27:25.323                             : :"The Revolution Has Begun"
    01:36:08.721                             : :Ready For War
    01:42:35.733                             : :"Asgard Is Not A Place"
    01:49:20.012                             : :"What Were You The God Of Again?"
    01:54:57.599                             : :Ragnarok
    02:00:37.522                             : :End Credits

  • Peso: 6.02 GiB

Sinopsis

Thor está preso al otro lado del universo sin su poderoso martillo y se enfrenta a una carrera contra el tiempo. Su objetivo es volver a Asgard y parar el Ragnarok porque significaría la destrucción de su planeta natal y el fin de la civilización Asgardiana a manos de una todopoderosa y nueva amenaza, la implacable Hela. Pero, primero deberá sobrevivir a una competición letal de gladiadores que lo enfrentará a su aliado y compañero en los Vengadores, ¡el Increíble Hulk!.

Ficha técnica

Video trailer de la película

Enlaces de descarga

Rip de Bluray

Descargar Thor: Ragnarok (2017) Full 1080p Latino




Aportes de DPeliculasHDmega la pass es:dpeliculashdmega.org Aportes de CinemaniaHD la pass es:cinemaniahdd.com

Películas relacionadas

  • Niños del hombre (2006) Full 1080p Latino

    2006
    Niños del hombre (2006) Full 1080p Latino

    0.0 1 h 49 min 2006

    Año 2027: el ser humano está al borde de la extinción: los hombres han perdido la capacidad de procrear...

    Director: Terry Needham

    Género: Acción

    Actores: Yolanda Vazquez

  • Winchester (2018) 1080p Latino

    2018
    Winchester (2018) 1080p Latino

    0.0 1h 39m 2018

    A finales del siglo XIX, después de la trágica muerte de su marido y su hijo, Sarah construye una casa-fortaleza...

    Director: Peter Spierig

    Género: Fantasía

    Actores: Xavier Gouault

  • Unlocked (2017) 1080p Latino

    2017
    Unlocked (2017) 1080p Latino

    3.0 1h 43m 2017

    Gira en torno a una agente de la CIA, especializada en interrogatorios, que es engañada por un sospechoso,...

    Director: Vera Homolacova

    Género: Acción

    Actores: Tosin Cole

  • Para atrapar al ladrón (1955) Full 1080p Latino

    1955
    Para atrapar al ladrón (1955) Full 1080p Latino

    0.0 1h 46m 1955

    A pesar de que John Robie "El Gato" (Cary Grant) es un ladrón de joyas reformado, se convierte en el...

    Director: Alfred Hitchcock

    Género: Crimen

    Actores: William 'Wee Willie' Davis

Comentarios 27
  • gaboccr - 03 abril, 2018

    enlace no valido en mega

  • Ivan - 02 marzo, 2018

    Thanks

  • DragoniteXL - 24 febrero, 2018

    Por qué está película es subme=9 a diferencia de todas las demás plateadas que son subme=10? Con todo respeto pregunto pero no creen que eso es bajarle mucho la calidad a las pelis? De todas maneras muchas gracias ya la descargue

    • dpelis - 01 abril, 2018

      la verdad ni ida estimado. el programa lo dejo asi 🙁

  • Celtak23 - 23 febrero, 2018

    Están rotos los links del Google Drive, Podrían re subirlos. por favor?

  • Chuchiviri - 23 febrero, 2018

    Enlaces caidos de 1ficher y drive!!!,saludos

  • ocpgaiden - 23 febrero, 2018

    muchisimas gracias por thor ragnarok

  • Slash - 23 febrero, 2018

    Muchas gracias.

  • Pablo Vicente Arce - 22 febrero, 2018

    la van a subir en 4k?

    • Dracarys - 22 febrero, 2018

      pronto

  • Francisco Riveros - 22 febrero, 2018

    Bueno chicos aqui dejo el link de los subtitulos en SRT, sacados directamente del PGS incluido en esta Movie.

    http://www.mediafire.com/file/nc0pyn49yebjtui/Thor+Ragnarok+%282017%29+1080p+x264.srt

    Cualquier error ortografico deberia ser minimo, si es que se me paso.
    Saludos. (zisko22)

  • Vanezz - 22 febrero, 2018

    Gracias..

  • #Cinefilo - 22 febrero, 2018

    Muchas Gracias de ♥

  • luis - 22 febrero, 2018

    gracias…………………

  • Tekorei - 22 febrero, 2018

    Gracias!!!!

  • Gusexxx - 22 febrero, 2018

    ¿Que diferencia tiene ésta peli a la que habían subido anteriormente?

    • Dracarys - 22 febrero, 2018

      ninguna direfencia solo se agrego el audio latino

  • Byron - 22 febrero, 2018

    otra pelicula donde no ponen los links de mega, favor agregarlos, a muchas de las que han subido no les ponen los links, nada mas ponen el nombre y no los suben, ni responden los comentarios ni lo arreglan, yo les he puesto muchos para recordarles y me los borran, o solo me dice que esta pendiente de moderacion y nunca aparece.

    • Dracarys - 22 febrero, 2018

      agregado…

  • Hector Rodrigo - 22 febrero, 2018

    cuando sale en 4k? gracias por el aporte

    • Dracarys - 22 febrero, 2018

      no se sabe aun…

  • KIKE - 22 febrero, 2018

    muy buenas peliculas, una consulta la subiran tambien enj 4k?

  • sebass - 22 febrero, 2018

    gracias!! lastima que pese mucho 🙁