Todo el dinero del mundo (2017) Full 1080p Latino

972 vistas
1 estrella2 estrellas3 estrellas4 estrellas5 estrellas (1 votos, promedio: 5,00 de 5)
Cargando…

Información de Todo el dinero del mundo (2017) Full 1080p Latino

Datos de la película

  • Calidad:
  • Audio: Español Latino AC3 5.1 BLURAY - Ingles DTS 5.1 BLURAY
  • Subtitulos: Español Latino PGS - Ingles PGS
  • Resolución: 1920x1080p
  • Formato: MKV
  • Codec: H.264
  • Encoder: Dracarys
  • Mediainfo: Clic para Mostrar Datos Ver
  • Format                                   : Matroska
    Format version                           : Version 4 / Version 2
    File size                                : 6.05 GiB
    Duration                                 : 2 h 12 min
    Overall bit rate                         : 6 526 kb/s
    Movie name                               : CinemaniaHDD.com
    Encoded date                             : UTC 2018-03-30 23:56:30 / UTC 2018-03-29T20:06:21Z
    Writing application                      : mkvmerge v15.0.0 ('Duel with the Devil') 64-bit
    Writing library                          : libebml v1.3.5 + libmatroska v1.4.5 / Lavf57.7.2

    Video
    ID                                       : 1
    Format                                   : AVC
    Format/Info                              : Advanced Video Codec
    Format profile                           : High@L4.1
    Format settings                          : CABAC / 4 Ref Frames
    Format settings, CABAC                   : Yes
    Format settings, RefFrames               : 4 frames
    Codec ID                                 : V_MPEG4/ISO/AVC
    Duration                                 : 2 h 12 min
    Bit rate                                 : 4 248 kb/s
    Width                                    : 1 920 pixels
    Height                                   : 1 080 pixels
    Display aspect ratio                     : 16:9
    Frame rate mode                          : Constant
    Frame rate                               : 23.976 (24000/1001) FPS
    Color space                              : YUV
    Chroma subsampling                       : 4:2:0
    Bit depth                                : 8 bits
    Scan type                                : Progressive
    Bits/(Pixel*Frame)                       : 0.085
    Stream size                              : 3.94 GiB (65%)
    Title                                    : Todo el dinero del mundo (2017) Full 1080p Latino
    Writing library                          : x264 core 148 r2708 86b7198
    Encoding settings                        : cabac=1 / ref=4 / deblock=1:0:0 / analyse=0x3:0x133 / me=esa / subme=9 / psy=1 / psy_rd=1.00:0.00 / mixed_ref=1 / me_range=16 / chroma_me=1 / trellis=2 / 8x8dct=1 / cqm=0 / deadzone=21,11 / fast_pskip=1 / chroma_qp_offset=-2 / threads=34 / lookahead_threads=2 / sliced_threads=0 / nr=0 / decimate=1 / interlaced=0 / bluray_compat=0 / constrained_intra=0 / bframes=3 / b_pyramid=2 / b_adapt=2 / b_bias=0 / direct=3 / weightb=1 / open_gop=0 / weightp=2 / keyint=240 / keyint_min=24 / scenecut=40 / intra_refresh=0 / rc_lookahead=60 / rc=crf / mbtree=1 / crf=20.0 / qcomp=0.60 / qpmin=0 / qpmax=69 / qpstep=4 / vbv_maxrate=62500 / vbv_bufsize=78125 / crf_max=0.0 / nal_hrd=none / filler=0 / ip_ratio=1.40 / aq=1:1.00
    Language                                 : English
    Default                                  : Yes
    Forced                                   : No
    Color range                              : Limited
    Color primaries                          : BT.709
    Transfer characteristics                 : BT.709
    Matrix coefficients                      : BT.709
    Statistics Tags Issue                    : mkvmerge v15.0.0 ('Duel with the Devil') 64-bit 2018-03-30 23:56:30 / mkvmerge v15.0.0 ('Duel with the Devil') 64-bit 2018-03-30 23:56:30 / UTC 2018-03-29T20:06:21Z
    FromStats_BitRate                        : 4336432
    FromStats_Duration                       : 02:12:41.954000000
    FromStats_FrameCount                     : 190896
    FromStats_StreamSize                     : 4315809779

    Audio #1
    ID                                       : 2
    Format                                   : AC-3
    Format/Info                              : Audio Coding 3
    Format settings, Endianness              : Big
    Codec ID                                 : A_AC3
    Duration                                 : 2 h 12 min
    Bit rate mode                            : Constant
    Bit rate                                 : 640 kb/s
    Channel(s)                               : 6 channels
    Channel positions                        : Front: L C R, Side: L R, LFE
    Sampling rate                            : 48.0 kHz
    Frame rate                               : 31.250 FPS (1536 SPF)
    Bit depth                                : 16 bits
    Compression mode                         : Lossy
    Stream size                              : 607 MiB (10%)
    Language                                 : Spanish
    Service kind                             : Complete Main
    Default                                  : Yes
    Forced                                   : No
    Statistics Tags Issue                    : mkvmerge v15.0.0 ('Duel with the Devil') 64-bit 2018-03-30 23:56:30 / mkvmerge v15.0.0 ('Duel with the Devil') 64-bit 2018-03-30 23:56:30 / UTC 2018-03-29T20:06:21Z
    FromStats_BitRate                        : 640000
    FromStats_Duration                       : 02:12:41.952000000
    FromStats_FrameCount                     : 248811
    FromStats_StreamSize                     : 636956160

    Audio #2
    ID                                       : 3
    Format                                   : DTS
    Format/Info                              : Digital Theater Systems
    Mode                                     : 16
    Format settings, Endianness              : Big
    Codec ID                                 : A_DTS
    Duration                                 : 2 h 12 min
    Bit rate mode                            : Constant
    Bit rate                                 : 1 509 kb/s
    Channel(s)                               : 6 channels
    Channel positions                        : Front: L C R, Side: L R, LFE
    Sampling rate                            : 48.0 kHz
    Frame rate                               : 93.750 FPS (512 SPF)
    Bit depth                                : 24 bits
    Compression mode                         : Lossy
    Stream size                              : 1.40 GiB (23%)
    Language                                 : English
    Default                                  : No
    Forced                                   : No
    Statistics Tags Issue                    : mkvmerge v15.0.0 ('Duel with the Devil') 64-bit 2018-03-30 23:56:30 / mkvmerge v15.0.0 ('Duel with the Devil') 64-bit 2018-03-30 23:56:30 / UTC 2018-03-29T20:06:21Z
    FromStats_BitRate                        : 1508999
    FromStats_Duration                       : 02:12:41.963000000
    FromStats_FrameCount                     : 746434
    FromStats_StreamSize                     : 1501825208

    Text #1
    ID                                       : 4
    Format                                   : PGS
    Muxing mode                              : zlib
    Codec ID                                 : S_HDMV/PGS
    Codec ID/Info                            : Picture based subtitle format used on BDs/HD-DVDs
    Language                                 : English
    Default                                  : No
    Forced                                   : No
    Statistics Tags Issue                    : mkvmerge v15.0.0 ('Duel with the Devil') 64-bit 2018-03-30 23:56:30 / mkvmerge v15.0.0 ('Duel with the Devil') 64-bit 2018-03-30 23:56:30 / UTC 2018-03-29T20:06:21Z
    FromStats_BitRate                        : 37963
    FromStats_Duration                       : 02:03:12.760000000
    FromStats_FrameCount                     : 3008
    FromStats_StreamSize                     : 35082068

    Text #2
    ID                                       : 5
    Format                                   : PGS
    Muxing mode                              : zlib
    Codec ID                                 : S_HDMV/PGS
    Codec ID/Info                            : Picture based subtitle format used on BDs/HD-DVDs
    Language                                 : Spanish
    Default                                  : No
    Forced                                   : No
    Statistics Tags Issue                    : mkvmerge v15.0.0 ('Duel with the Devil') 64-bit 2018-03-30 23:56:30 / mkvmerge v15.0.0 ('Duel with the Devil') 64-bit 2018-03-30 23:56:30 / UTC 2018-03-29T20:06:21Z
    FromStats_BitRate                        : 34911
    FromStats_Duration                       : 02:11:20.289000000
    FromStats_FrameCount                     : 2892
    FromStats_StreamSize                     : 34388881

    Menu
    00:00:00.000                             : :Chapter 1
    00:10:55.155                             : :Chapter 2
    00:19:10.358                             : :Chapter 3
    00:30:35.500                             : :Chapter 4
    00:39:27.907                             : :Chapter 5
    00:48:36.664                             : :Chapter 6
    00:55:26.156                             : :Chapter 7
    01:05:59.247                             : :Chapter 8
    01:15:27.606                             : :Chapter 9
    01:24:42.369                             : :Chapter 10
    01:28:20.587                             : :Chapter 11
    01:34:55.064                             : :Chapter 12
    01:42:14.170                             : :Chapter 13
    01:48:11.485                             : :Chapter 14
    01:56:07.252                             : :Chapter 15
    02:03:08.381                             : :Chapter 16

  • Peso: 6.05 GiB

Sinopsis

Esta película presenta a una organización paramilitar italiana orientada a la izquierda que lleva a cabo uno de los mayores raptos acontecidos en la década de 1970, el del joven John Paul Getty III (Charlie Plummer), nieto de uno de los hombres más ricos del mundo. Mientras el chico permanecía en paradero desconocido, su madre Gail Harris (Michelle Williams) trataba por todos los medios que el magnate John Paul Getty Sr (Christopher Plummer) pagase el rescate de su nieto, mientras que él se negaba a ceder a las extorsiones.

Ficha técnica

Video trailer de la película

Enlaces de descarga

Rip de Bluray

Descargar Todo el dinero del mundo (2017) Full 1080p Latino




Aportes de DPeliculasHDmega la pass es:dpeliculashdmega.org Aportes de CinemaniaHD la pass es:cinemaniahdd.com

Películas relacionadas

  • Niños del hombre (2006) Full 1080p Latino

    2006
    Niños del hombre (2006) Full 1080p Latino

    0.0 1 h 49 min 2006

    Año 2027: el ser humano está al borde de la extinción: los hombres han perdido la capacidad de procrear...

    Director: Terry Needham

    Género: Acción

    Actores: Yolanda Vazquez

  • Amateur (2018) NF Webrip 1080p Latino

    2018
    Amateur (2018) NF Webrip 1080p Latino

    0.0 1h 36m 2018

    Un joven jugador de baloncesto se enfrenta a las dificultades de encajar en el nuevo equipo. Adaptación...

    Director: Ryan Koo

    Género: Drama

    Actores: Tekola Cornetet

  • Winchester (2018) 1080p Latino

    2018
    Winchester (2018) 1080p Latino

    0.0 1h 39m 2018

    A finales del siglo XIX, después de la trágica muerte de su marido y su hijo, Sarah construye una casa-fortaleza...

    Director: Peter Spierig

    Género: Fantasía

    Actores: Xavier Gouault

  • Unlocked (2017) 1080p Latino

    2017
    Unlocked (2017) 1080p Latino

    3.0 1h 43m 2017

    Gira en torno a una agente de la CIA, especializada en interrogatorios, que es engañada por un sospechoso,...

    Director: Vera Homolacova

    Género: Acción

    Actores: Tosin Cole

Comentarios 0