Trolls Vamos a Festejar (2017) WEBDL 1080p Latino

1.606 vistas
1 estrella2 estrellas3 estrellas4 estrellas5 estrellas (Ninguna valoración todavía)
Cargando…

Información de Trolls Vamos a Festejar (2017) WEBDL 1080p Latino

Datos de la película

  • Calidad: WEBDL
  • Audio: Español Latino AC3 2.0 iTunes - Ingles AC3 5.1 iTunes
  • Subtitulos: No
  • Resolución: 1916X1072
  • Formato: MKV
  • Codec: H.264
  • Encoder: Dpelis
  • Mediainfo: Clic para Mostrar Datos Ver
  • Format                                   : Matroska
    Format version                           : Version 4 / Version 2
    File size                                : 2.92 GiB
    Duration                                 : 1 h 13 min
    Overall bit rate                         : 5 708 kb/s
    Movie name                               : dpeliculashdmega.org
    Encoded date                             : UTC 2017-11-28 05:49:05
    Writing application                      : mkvmerge v15.0.0 ('Duel with the Devil') 64-bit
    Writing library                          : libebml v1.3.5 + libmatroska v1.4.5

    Video
    ID                                       : 1
    Format                                   : AVC
    Format/Info                              : Advanced Video Codec
    Format profile                           : High@L4
    Format settings                          : CABAC / 4 Ref Frames
    Format settings, CABAC                   : Yes
    Format settings, RefFrames               : 4 frames
    Codec ID                                 : V_MPEG4/ISO/AVC
    Duration                                 : 1 h 13 min
    Bit rate                                 : 5 077 kb/s
    Width                                    : 1 916 pixels
    Height                                   : 1 072 pixels
    Display aspect ratio                     : 16:9
    Frame rate mode                          : Constant
    Frame rate                               : 23.976 FPS
    Color space                              : YUV
    Chroma subsampling                       : 4:2:0
    Bit depth                                : 8 bits
    Scan type                                : Progressive
    Bits/(Pixel*Frame)                       : 0.103
    Stream size                              : 2.60 GiB (89%)
    Title                                    : Trolls Vamos a Festejar (2017) WEBDL 1080p Latino
    Language                                 : English
    Default                                  : Yes
    Forced                                   : No
    Color range                              : Limited
    Color primaries                          : BT.709
    Transfer characteristics                 : BT.709
    Matrix coefficients                      : BT.709

    Audio #1
    ID                                       : 2
    Format                                   : AC-3
    Format/Info                              : Audio Coding 3
    Format settings, Endianness              : Big
    Codec ID                                 : A_AC3
    Duration                                 : 1 h 12 min
    Bit rate mode                            : Constant
    Bit rate                                 : 256 kb/s
    Channel(s)                               : 2 channels
    Channel positions                        : Front: L R
    Sampling rate                            : 48.0 kHz
    Frame rate                               : 31.250 FPS (1536 SPF)
    Bit depth                                : 16 bits
    Compression mode                         : Lossy
    Stream size                              : 132 MiB (4%)
    Language                                 : Spanish
    Service kind                             : Complete Main
    Default                                  : Yes
    Forced                                   : No

    Audio #2
    ID                                       : 3
    Format                                   : AC-3
    Format/Info                              : Audio Coding 3
    Format settings, Endianness              : Big
    Codec ID                                 : A_AC3
    Duration                                 : 1 h 12 min
    Bit rate mode                            : Constant
    Bit rate                                 : 384 kb/s
    Channel(s)                               : 6 channels
    Channel positions                        : Front: L C R, Side: L R, LFE
    Sampling rate                            : 48.0 kHz
    Frame rate                               : 31.250 FPS (1536 SPF)
    Bit depth                                : 16 bits
    Compression mode                         : Lossy
    Stream size                              : 198 MiB (7%)
    Language                                 : English
    Service kind                             : Complete Main
    Default                                  : No
    Forced                                   : No

    Text
    ID                                       : 4
    Format                                   : UTF-8
    Codec ID                                 : S_TEXT/UTF8
    Codec ID/Info                            : UTF-8 Plain Text
    Duration                                 : 1 h 11 min
    Bit rate                                 : 2 b/s
    Count of elements                        : 42
    Stream size                              : 1.12 KiB (0%)
    Title                                    : Forzados
    Language                                 : Spanish
    Default                                  : Yes
    Forced                                   : No

    Menu
    00:00:00.000                             : en:1
    00:04:40.280                             : en:2
    00:10:25.208                             : en:3
    00:15:30.805                             : en:4
    00:25:59.225                             : en:5
    00:29:20.842                             : en:6
    00:31:31.472                             : en:7
    00:37:26.910                             : en:8
    00:39:22.984                             : en:9
    00:41:47.210                             : en:10
    00:48:54.594                             : en:11
    00:51:40.258                             : en:12
    00:58:36.506                             : en:13
    01:11:07.882                             : en:14

  • Peso: 2.92 GiB

Sinopsis

Cuando la eternamente optimista Poppy, reina de los Trolls, se entera que los Bergens ya no tienen fiestas en su calendario, solicita la ayuda de Branch y el resto de su pandilla para una peculiar misión para poner solución a la situación y que regresen las fiestas navideñas. 
Los episodios extra incluyen, DreamWorks Home Adventures con Tip & Oh: “Santa-Oh” (12 min) y “Un día en la nieve” (12 min) y DreamWorks Dawn of the Croods: “A Gran Day Out” (24 min).

Ficha técnica

Video trailer de la película

Enlaces de descarga

Rip de Bluray

Descargar Trolls Vamos a Festejar (2017) WEBDL 1080p Latino




Aportes de DPeliculasHDmega la pass es:dpeliculashdmega.org Aportes de CinemaniaHD la pass es:cinemaniahdd.com

Películas relacionadas

  • Winchester (2018) 1080p Latino

    2018
    Winchester (2018) 1080p Latino

    0.0 1h 39m 2018

    A finales del siglo XIX, después de la trágica muerte de su marido y su hijo, Sarah construye una casa-fortaleza...

    Director: Peter Spierig

    Género: Fantasía

    Actores: Xavier Gouault

  • Dude (2018) NF 1080p Latino

    2018
    Dude (2018) NF 1080p Latino

    5.0 1h 30m 2018

    Cuatro mejores amigas se tienen que enfrentar a su nueva vida. Las dos últimas semanas de instituto...

    Director: Olivia Milch

    Género: Comedia

    Actores: Sydney Lucas

  • A Ghost Story (2017) 1080p Latino

    2017
    A Ghost Story (2017) 1080p Latino

    5.0 1h 27m 2017

    Un hombre recientemente fallecido regresa a su casa como un fantasma vestido con una sábana blanca para...

    Director: David Lowery

    Género: Drama

    Actores: Yasmina Gutierrez

  • Gun shy (2017) 1080p Latino

    2017
    Gun shy (2017) 1080p Latino

    0.0 1h 31m 2017

    Basada en la novela homónima de Mark Haskell Smith. Turk Henry es una antigua estrella de rock con sobrepeso...

    Director: Simon West

    Género: Acción

    Actores: Sebastián Apiolaza

Comentarios 0