Tropic Thunder, ¡una guerra muy perra! (2008) EXTENDED Full 1080p Latino

836 vistas
1 estrella2 estrellas3 estrellas4 estrellas5 estrellas (1 votos, promedio: 5,00 de 5)
Cargando…

Información de Tropic Thunder, ¡una guerra muy perra! (2008) EXTENDED Full 1080p Latino

Datos de la película

  • Calidad: Full 1080p
  • Audio: Español Latino AC3 5.1 BLURAY - Ingles AC3 5.1 BLURAY
  • Subtitulos: Español Latino PGS - Ingles PGS
  • Resolución: 1920X1080
  • Formato: MKV
  • Codec: H.264
  • Encoder: Dpelis
  • Mediainfo: Clic para Mostrar Datos Ver
  • Format                                   : Matroska
    Format version                           : Version 4 / Version 2
    File size                                : 8.17 GiB
    Duration                                 : 2 h 1 min
    Overall bit rate                         : 9 655 kb/s
    Movie name                               : dpeliculashdmega.org
    Encoded date                             : UTC 2017-11-23 19:16:35 / UTC 2017-11-15T08:07:09Z
    Writing application                      : mkvmerge v15.0.0 ('Duel with the Devil') 64-bit
    Writing library                          : libebml v1.3.5 + libmatroska v1.4.5 / Lavf57.7.2

    Video
    ID                                       : 1
    Format                                   : AVC
    Format/Info                              : Advanced Video Codec
    Format profile                           : High@L4.1
    Format settings                          : CABAC / 4 Ref Frames
    Format settings, CABAC                   : Yes
    Format settings, RefFrames               : 4 frames
    Codec ID                                 : V_MPEG4/ISO/AVC
    Duration                                 : 2 h 1 min
    Bit rate                                 : 8 183 kb/s
    Width                                    : 1 920 pixels
    Height                                   : 1 080 pixels
    Display aspect ratio                     : 16:9
    Frame rate mode                          : Constant
    Frame rate                               : 23.976 (24000/1001) FPS
    Color space                              : YUV
    Chroma subsampling                       : 4:2:0
    Bit depth                                : 8 bits
    Scan type                                : Progressive
    Bits/(Pixel*Frame)                       : 0.165
    Stream size                              : 6.92 GiB (85%)
    Title                                    : Tropic Thunder, ¡una guerra muy perra! (2008) EXTENDED Full 1080p Latino
    Writing library                          : x264 core 148 r2708 86b7198
    Encoding settings                        : cabac=1 / ref=4 / deblock=1:0:0 / analyse=0x3:0x133 / me=esa / subme=10 / psy=1 / psy_rd=1.00:0.00 / mixed_ref=1 / me_range=24 / chroma_me=1 / trellis=2 / 8x8dct=1 / cqm=0 / deadzone=21,11 / fast_pskip=1 / chroma_qp_offset=-2 / threads=34 / lookahead_threads=5 / sliced_threads=0 / nr=0 / decimate=1 / interlaced=0 / bluray_compat=0 / constrained_intra=0 / bframes=8 / b_pyramid=2 / b_adapt=2 / b_bias=0 / direct=3 / weightb=1 / open_gop=0 / weightp=2 / keyint=240 / keyint_min=24 / scenecut=40 / intra_refresh=0 / rc_lookahead=60 / rc=crf / mbtree=1 / crf=20.0 / qcomp=0.60 / qpmin=0 / qpmax=69 / qpstep=4 / vbv_maxrate=62500 / vbv_bufsize=78125 / crf_max=0.0 / nal_hrd=none / filler=0 / ip_ratio=1.40 / aq=1:1.00
    Language                                 : English
    Default                                  : Yes
    Forced                                   : No
    Color range                              : Limited
    Color primaries                          : BT.709
    Transfer characteristics                 : BT.709
    Matrix coefficients                      : BT.709
    Statistics Tags Issue                    : mkvmerge v15.0.0 ('Duel with the Devil') 64-bit 2017-11-23 19:16:35 / mkvmerge v15.0.0 ('Duel with the Devil') 64-bit 2017-11-23 19:16:35 / UTC 2017-11-15T08:07:09Z
    FromStats_BitRate                        : 8346537
    FromStats_Duration                       : 02:01:08.678000000
    FromStats_FrameCount                     : 174274
    FromStats_StreamSize                     : 7583536716

    Audio #1
    ID                                       : 2
    Format                                   : AC-3
    Format/Info                              : Audio Coding 3
    Format settings, Endianness              : Big
    Codec ID                                 : A_AC3
    Duration                                 : 2 h 1 min
    Bit rate mode                            : Constant
    Bit rate                                 : 640 kb/s
    Channel(s)                               : 6 channels
    Channel positions                        : Front: L C R, Side: L R, LFE
    Sampling rate                            : 48.0 kHz
    Frame rate                               : 31.250 FPS (1536 SPF)
    Bit depth                                : 16 bits
    Compression mode                         : Lossy
    Stream size                              : 555 MiB (7%)
    Title                                    : Latino-AC3
    Language                                 : Spanish
    Service kind                             : Complete Main
    Default                                  : Yes
    Forced                                   : No
    Statistics Tags Issue                    : mkvmerge v15.0.0 ('Duel with the Devil') 64-bit 2017-11-23 19:16:35 / mkvmerge v15.0.0 ('Duel with the Devil') 64-bit 2017-11-23 19:16:35 / UTC 2017-11-15T08:07:09Z
    FromStats_BitRate                        : 640000
    FromStats_Duration                       : 02:01:08.704000000
    FromStats_FrameCount                     : 227147
    FromStats_StreamSize                     : 581496320

    Audio #2
    ID                                       : 3
    Format                                   : AC-3
    Format/Info                              : Audio Coding 3
    Format settings, Endianness              : Big
    Codec ID                                 : A_AC3
    Duration                                 : 2 h 1 min
    Bit rate mode                            : Constant
    Bit rate                                 : 640 kb/s
    Channel(s)                               : 6 channels
    Channel positions                        : Front: L C R, Side: L R, LFE
    Sampling rate                            : 48.0 kHz
    Frame rate                               : 31.250 FPS (1536 SPF)
    Bit depth                                : 16 bits
    Compression mode                         : Lossy
    Stream size                              : 555 MiB (7%)
    Title                                    : Ingles-AC3
    Language                                 : English
    Service kind                             : Complete Main
    Default                                  : No
    Forced                                   : No
    Statistics Tags Issue                    : mkvmerge v15.0.0 ('Duel with the Devil') 64-bit 2017-11-23 19:16:35 / mkvmerge v15.0.0 ('Duel with the Devil') 64-bit 2017-11-23 19:16:35 / UTC 2017-11-15T08:07:09Z
    FromStats_BitRate                        : 640000
    FromStats_Duration                       : 02:01:08.704000000
    FromStats_FrameCount                     : 227147
    FromStats_StreamSize                     : 581496320

    Text #1
    ID                                       : 4
    Format                                   : PGS
    Muxing mode                              : zlib
    Codec ID                                 : S_HDMV/PGS
    Codec ID/Info                            : Picture based subtitle format used on BDs/HD-DVDs
    Language                                 : English
    Default                                  : No
    Forced                                   : No
    Statistics Tags Issue                    : mkvmerge v15.0.0 ('Duel with the Devil') 64-bit 2017-11-23 19:16:35 / mkvmerge v15.0.0 ('Duel with the Devil') 64-bit 2017-11-23 19:16:35 / UTC 2017-11-15T08:07:09Z
    FromStats_BitRate                        : 49786
    FromStats_Duration                       : 01:52:43.590000000
    FromStats_FrameCount                     : 3550
    FromStats_StreamSize                     : 42091732

    Text #2
    ID                                       : 5
    Format                                   : PGS
    Muxing mode                              : zlib
    Codec ID                                 : S_HDMV/PGS
    Codec ID/Info                            : Picture based subtitle format used on BDs/HD-DVDs
    Language                                 : Spanish
    Default                                  : No
    Forced                                   : No
    Statistics Tags Issue                    : mkvmerge v15.0.0 ('Duel with the Devil') 64-bit 2017-11-23 19:16:35 / mkvmerge v15.0.0 ('Duel with the Devil') 64-bit 2017-11-23 19:16:35 / UTC 2017-11-15T08:07:09Z
    FromStats_BitRate                        : 45726
    FromStats_Duration                       : 01:52:43.590000000
    FromStats_FrameCount                     : 3670
    FromStats_StreamSize                     : 38659561

    Menu
    00:00:00.000                             : :Chapter 1
    00:03:58.155                             : :Chapter 2
    00:10:17.534                             : :Chapter 3
    00:15:46.821                             : :Chapter 4
    00:20:44.702                             : :Chapter 5
    00:28:43.180                             : :Chapter 6
    00:35:07.564                             : :Chapter 7
    00:41:16.349                             : :Chapter 8
    00:47:16.125                             : :Chapter 9
    00:50:50.965                             : :Chapter 10
    00:55:45.509                             : :Chapter 11
    00:59:31.276                             : :Chapter 12
    01:03:47.282                             : :Chapter 13
    01:10:31.853                             : :Chapter 14
    01:12:59.417                             : :Chapter 15
    01:16:54.610                             : :Chapter 16
    01:21:29.259                             : :Chapter 17
    01:25:42.638                             : :Chapter 18
    01:28:59.793                             : :Chapter 19
    01:34:41.467                             : :Chapter 20
    01:38:44.252                             : :Chapter 21
    01:45:07.635                             : :Chapter 22
    01:51:14.334                             : :Chapter 23
    01:52:57.354                             : :Chapter 24

     

  • Peso: 8.17 GiB

Sinopsis

En la selva del sureste de Asia se rueda una superproducción sobre la guerra de Vietnam en la que intervienen varias estrellas: Kirk Lazarus, un actor que ha ganado tres Oscar; Jeff Portnoy, estrella de una popular y grosera saga de películas, Alpa Chino, estrella del hip-hop metido a actor, y el novato Kevin Sandusky. A medida que avanza el rodaje, las cosas van de mal en peor, sobre todo para Damien, el director de la cinta. Llega un momento en que los actores, perdidos en mitad de la jungla, llegan a creer que Damien sigue rodando con cámaras ocultas; lo cierto es que están realmente perdidos y tienen que enfrentarse a una verdadera guerra y actuar como si fueran auténticos soldados si quieren salir con vida de ese infierno.

Ficha técnica

Video trailer de la película

Enlaces de descarga

Rip de Bluray

Descargar Tropic Thunder, ¡una guerra muy perra! (2008) EXTENDED Full 1080p Latino




Aportes de DPeliculasHDmega la pass es:dpeliculashdmega.org Aportes de CinemaniaHD la pass es:cinemaniahdd.com

Películas relacionadas

  • Niños del hombre (2006) Full 1080p Latino

    2006
    Niños del hombre (2006) Full 1080p Latino

    0.0 1 h 49 min 2006

    Año 2027: el ser humano está al borde de la extinción: los hombres han perdido la capacidad de procrear...

    Director: Terry Needham

    Género: Acción

    Actores: Yolanda Vazquez

  • Unlocked (2017) 1080p Latino

    2017
    Unlocked (2017) 1080p Latino

    3.0 1h 43m 2017

    Gira en torno a una agente de la CIA, especializada en interrogatorios, que es engañada por un sospechoso,...

    Director: Vera Homolacova

    Género: Acción

    Actores: Tosin Cole

  • Para atrapar al ladrón (1955) Full 1080p Latino

    1955
    Para atrapar al ladrón (1955) Full 1080p Latino

    0.0 1h 46m 1955

    A pesar de que John Robie "El Gato" (Cary Grant) es un ladrón de joyas reformado, se convierte en el...

    Director: Alfred Hitchcock

    Género: Crimen

    Actores: William 'Wee Willie' Davis

  • Si decido quedarme (2014) Full 1080p Latino

    2014
    Si decido quedarme (2014) Full 1080p Latino

    5.0 1 h 46 min 2014

    Mia es una joven de 17 años que parece tenerlo todo en la vida: una famila adorable, un novio que la...

    Director: R.J. Cutler

    Género: Drama

    Actores: William C. Vaughan

Comentarios 2
  • dario - 23 noviembre, 2017

    gracias esperando los link mega

    • Dpelis2 - 23 noviembre, 2017

      Mega Agregado..