Troy: Director’s Cut (2004) Full 1080p Latino

954 vistas
1 estrella2 estrellas3 estrellas4 estrellas5 estrellas (1 votos, promedio: 5,00 de 5)
Cargando…

Información de Troy: Director’s Cut (2004) Full 1080p Latino

Datos de la película

  • Calidad: Full 1080p
  • Audio: Español Latino AC3 5.1 BLURAY - Ingles DTS 5.1 BLURAY
  • Subtitulos: Español Latino PGS
  • Resolución: 1920X1080p
  • Formato: MKV
  • Codec: H.264
  • Encoder: Dracarys
  • Mediainfo: Clic para Mostrar Datos Ver
  • Format                                   : Matroska
    Format version                           : Version 4 / Version 2
    File size                                : 10.6 GiB
    Duration                                 : 3 h 16 min
    Overall bit rate                         : 7 775 kb/s
    Movie name                               : CinemaniaHDD.com
    Encoded date                             : UTC 2018-03-17 02:54:42 / UTC 2018-03-16T02:00:55Z
    Writing application                      : mkvmerge v15.0.0 ('Duel with the Devil') 64-bit
    Writing library                          : libebml v1.3.5 + libmatroska v1.4.5 / Lavf57.7.2

    Video
    ID                                       : 1
    Format                                   : AVC
    Format/Info                              : Advanced Video Codec
    Format profile                           : High@L4.1
    Format settings                          : CABAC / 4 Ref Frames
    Format settings, CABAC                   : Yes
    Format settings, RefFrames               : 4 frames
    Codec ID                                 : V_MPEG4/ISO/AVC
    Duration                                 : 3 h 16 min
    Bit rate                                 : 5 664 kb/s
    Width                                    : 1 920 pixels
    Height                                   : 1 080 pixels
    Display aspect ratio                     : 16:9
    Frame rate mode                          : Constant
    Frame rate                               : 23.976 (24000/1001) FPS
    Color space                              : YUV
    Chroma subsampling                       : 4:2:0
    Bit depth                                : 8 bits
    Scan type                                : Progressive
    Bits/(Pixel*Frame)                       : 0.114
    Stream size                              : 7.76 GiB (73%)
    Title                                    : Troy: Director's Cut (2004) Full 1080p Latino
    Writing library                          : x264 core 148 r2708 86b7198
    Encoding settings                        : cabac=1 / ref=4 / deblock=1:0:0 / analyse=0x3:0x133 / me=esa / subme=9 / psy=1 / psy_rd=1.00:0.00 / mixed_ref=1 / me_range=16 / chroma_me=1 / trellis=2 / 8x8dct=1 / cqm=0 / deadzone=21,11 / fast_pskip=1 / chroma_qp_offset=-2 / threads=34 / lookahead_threads=2 / sliced_threads=0 / nr=0 / decimate=1 / interlaced=0 / bluray_compat=0 / constrained_intra=0 / bframes=3 / b_pyramid=2 / b_adapt=2 / b_bias=0 / direct=3 / weightb=1 / open_gop=0 / weightp=2 / keyint=240 / keyint_min=24 / scenecut=40 / intra_refresh=0 / rc_lookahead=60 / rc=crf / mbtree=1 / crf=20.0 / qcomp=0.60 / qpmin=0 / qpmax=69 / qpstep=4 / vbv_maxrate=62500 / vbv_bufsize=78125 / crf_max=0.0 / nal_hrd=none / filler=0 / ip_ratio=1.40 / aq=1:1.00
    Language                                 : English
    Default                                  : Yes
    Forced                                   : No
    Color range                              : Limited
    Color primaries                          : BT.709
    Transfer characteristics                 : BT.709
    Matrix coefficients                      : BT.709
    Statistics Tags Issue                    : mkvmerge v15.0.0 ('Duel with the Devil') 64-bit 2018-03-17 02:54:42 / mkvmerge v15.0.0 ('Duel with the Devil') 64-bit 2018-03-17 02:54:42 / UTC 2018-03-16T02:00:55Z
    FromStats_BitRate                        : 5807478
    FromStats_Duration                       : 03:16:02.751000000
    FromStats_FrameCount                     : 282024
    FromStats_StreamSize                     : 8538989870

    Audio #1
    ID                                       : 2
    Format                                   : AC-3
    Format/Info                              : Audio Coding 3
    Format settings, Endianness              : Big
    Codec ID                                 : A_AC3
    Duration                                 : 3 h 16 min
    Bit rate mode                            : Constant
    Bit rate                                 : 448 kb/s
    Channel(s)                               : 6 channels
    Channel positions                        : Front: L C R, Side: L R, LFE
    Sampling rate                            : 48.0 kHz
    Frame rate                               : 31.250 FPS (1536 SPF)
    Bit depth                                : 16 bits
    Compression mode                         : Lossy
    Stream size                              : 628 MiB (6%)
    Language                                 : Spanish
    Service kind                             : Complete Main
    Default                                  : Yes
    Forced                                   : No
    Statistics Tags Issue                    : mkvmerge v15.0.0 ('Duel with the Devil') 64-bit 2018-03-17 02:54:42 / mkvmerge v15.0.0 ('Duel with the Devil') 64-bit 2018-03-17 02:54:42 / UTC 2018-03-16T02:00:55Z
    FromStats_BitRate                        : 448000
    FromStats_Duration                       : 03:16:02.816000000
    FromStats_FrameCount                     : 367588
    FromStats_StreamSize                     : 658717696

    Audio #2
    ID                                       : 3
    Format                                   : DTS
    Format/Info                              : Digital Theater Systems
    Mode                                     : 16
    Format settings, Endianness              : Big
    Codec ID                                 : A_DTS
    Duration                                 : 3 h 16 min
    Bit rate mode                            : Constant
    Bit rate                                 : 1 509 kb/s
    Channel(s)                               : 6 channels
    Channel positions                        : Front: L C R, Side: L R, LFE
    Sampling rate                            : 48.0 kHz
    Frame rate                               : 93.750 FPS (512 SPF)
    Bit depth                                : 24 bits
    Compression mode                         : Lossy
    Stream size                              : 2.07 GiB (19%)
    Language                                 : English
    Default                                  : No
    Forced                                   : No
    Statistics Tags Issue                    : mkvmerge v15.0.0 ('Duel with the Devil') 64-bit 2018-03-17 02:54:42 / mkvmerge v15.0.0 ('Duel with the Devil') 64-bit 2018-03-17 02:54:42 / UTC 2018-03-16T02:00:55Z
    FromStats_BitRate                        : 1508999
    FromStats_Duration                       : 03:16:02.827000000
    FromStats_FrameCount                     : 1102765
    FromStats_StreamSize                     : 2218763180

    Text #1
    ID                                       : 4
    Format                                   : PGS
    Muxing mode                              : zlib
    Codec ID                                 : S_HDMV/PGS
    Codec ID/Info                            : Picture based subtitle format used on BDs/HD-DVDs
    Language                                 : Spanish
    Default                                  : No
    Forced                                   : No
    Statistics Tags Issue                    : mkvmerge v15.0.0 ('Duel with the Devil') 64-bit 2018-03-17 02:54:42 / mkvmerge v15.0.0 ('Duel with the Devil') 64-bit 2018-03-17 02:54:42 / UTC 2018-03-16T02:00:55Z
    FromStats_BitRate                        : 18522
    FromStats_Duration                       : 03:15:23.003000000
    FromStats_FrameCount                     : 2794
    FromStats_StreamSize                     : 27142974

    Text #2
    ID                                       : 5
    Format                                   : ASS
    Codec ID                                 : S_TEXT/ASS
    Codec ID/Info                            : Advanced Sub Station Alpha
    Compression mode                         : Lossless
    Language                                 : English
    Default                                  : No
    Forced                                   : No
    Statistics Tags Issue                    : mkvmerge v15.0.0 ('Duel with the Devil') 64-bit 2018-03-17 02:54:42 / mkvmerge v15.0.0 ('Duel with the Devil') 64-bit 2018-03-17 02:54:42 / UTC 2018-03-16T02:00:55Z
    FromStats_BitRate                        : 55
    FromStats_Duration                       : 03:02:10.582000000
    FromStats_FrameCount                     : 1374
    FromStats_StreamSize                     : 76466

    Menu
    00:00:00.000                             : :Foreword
    00:01:30.090                             : :Awaiting Achilles
    00:08:16.329                             : :"Is There No One Else?"
    00:11:06.332                             : :Secret Lovers
    00:18:22.101                             : :Brothers' Pledges
    00:25:33.365                             : :Greatest War
    00:27:41.493                             : :Recruiter Odysseus
    00:33:23.335                             : :Glory and Doom
    00:36:39.864                             : :Royal Welcome
    00:40:01.566                             : :They're Coming for Me
    00:44:50.188                             : :Immortality Is Yours
    00:52:32.316                             : :Beach Combat
    00:58:00.143                             : :Too Early in the Day
    01:03:48.992                             : :No Need to Fear
    01:07:41.224                             : :Spoils of War
    01:12:36.352                             : :The Way I Love Helen
    01:17:55.838                             : :Power, Not Love
    01:21:31.720                             : :Soldiers Obey
    01:23:55.864                             : :Gathering Forces
    01:28:49.324                             : :Brave Offer
    01:32:23.371                             : :Paris vs. Menelaus
    01:36:58.146                             : :Battle Cry
    01:41:39.093                             : :Greek Retreat
    01:44:56.957                             : :Weak Morale
    01:48:15.322                             : :Everyone Dies
    01:54:20.687                             : :Born for This War
    01:57:26.039                             : :Priam's Order
    02:00:05.699                             : :Flaming Attack
    02:03:47.086                             : :Hector's Adversary
    02:08:40.213                             : :Tragic Mistake
    02:10:42.668                             : :Night of Torments
    02:15:10.436                             : :Summoned to Fight
    02:20:47.773                             : :Now You Know
    02:23:08.246                             : :Hector vs. Achilles
    02:26:25.110                             : :Desecrating the Dead
    02:28:29.734                             : :A Father's Plea
    02:34:48.446                             : :Achilles' Word
    02:37:28.940                             : :Inspirations and Honors
    02:41:20.171                             : :Parting Gift
    02:45:40.764                             : :Troy Under Siege
    02:51:09.760                             : :We Will Be Together
    02:55:39.029                             : :Royal Bloodshed
    02:58:42.712                             : :Brought to Hell
    03:02:24.434                             : :I Walked With Giants
    03:05:12.602                             : :End Credits

  • Peso: 10.6 GiB

Sinopsis

A lo largo de los tiempos, los hombres han hecho la guerra. Unos por poder, otros por gloria o por honor, y algunos por amor. En la antigua Grecia, la pasión de dos de los amantes más legendarios de la historia, Paris, príncipe de Troya (Orlando Bloom) y Helena (Diane Kruger), reina de Esparta, desencadena una guerra que asolará una civilización. El rapto de Helena por Paris, separándola de su esposo, el rey Menelao (Bren-dan Gleeson), es un insulto que El orgullo familiar establece que una afrenta a Menelao es una afrenta a su hermano Agamenón (Brian Cox), el poderoso rey de Micenas, que no tarda en reunir a todas las grandes tribus de Grecia para recuperar a Helena de manos de los troyanos y defender el honor de su hermano. La verdad es que la lucha por el honor por parte de Agamenón está corrompida por su incontenible codicia ya que necesita conquistar Troya para asumir el control del mar Egeo.

Ficha técnica

Video trailer de la película

Enlaces de descarga

Rip de Bluray

Descargar Troy: Director’s Cut (2004) Full 1080p Latino




Aportes de DPeliculasHDmega la pass es:dpeliculashdmega.org Aportes de CinemaniaHD la pass es:cinemaniahdd.com

Películas relacionadas

  • A Ghost Story (2017) 1080p Latino

    2017
    A Ghost Story (2017) 1080p Latino

    5.0 1h 27m 2017

    Un hombre recientemente fallecido regresa a su casa como un fantasma vestido con una sábana blanca para...

    Director: David Lowery

    Género: Drama

    Actores: Yasmina Gutierrez

  • Gun shy (2017) 1080p Latino

    2017
    Gun shy (2017) 1080p Latino

    0.0 1h 31m 2017

    Basada en la novela homónima de Mark Haskell Smith. Turk Henry es una antigua estrella de rock con sobrepeso...

    Director: Simon West

    Género: Acción

    Actores: Sebastián Apiolaza

  • Maze Runner prueba de fuego (2015) Full 1080p Latino

    2015
    Maze Runner prueba de fuego (2015) Full 1080p Latino

    5.0 2 h 11 min 2015

    En este nuevo capítulo de la trepidante saga "El Corredor del Laberinto", Thomas (Dylan O'Brien) y el...

    Director: Wes Ball

    Género: Acción

    Actores: Thomas Brodie-Sangster

  • Maze Runner correr o morir (2014) Full 1080p Latino

    2014
    Maze Runner correr o morir (2014) Full 1080p Latino

    5.0 1 h 53 min 2014

    Thomas abre los ojos y se da cuenta que está en un ascensor. Lo extraño es que no recuerda nada, ni...

    Director: Wes Ball

    Género: Acción

    Actores: Will Poulter

  • Se dice de mí (2010) Full 1080p Latino

    2010
    Se dice de mí (2010) Full 1080p Latino

    5.0 1 h 32 min 2010

    El guión, obra del dramaturgo Bert V. Royal, es una versión moderna y en clave estudiantil de “La...

    Director: Will Sandoval

    Género: Comedia

    Actores: Zack Kennedy

Comentarios 0