Valiente (2012) Full 1080p Latino

962 vistas
1 estrella2 estrellas3 estrellas4 estrellas5 estrellas (1 votos, promedio: 5,00 de 5)
Cargando…

Información de Valiente (2012) Full 1080p Latino

Datos de la película

  • Calidad: Full 1080p
  • Audio: Español Latino AC3 5.1 BLURAY - Ingles AC3 5.1 BLURAY
  • Subtitulos: Español Latino PGS - Ingles PGS
  • Resolución: 1920X1080p
  • Formato: MKV
  • Codec: H.264
  • Encoder: Dracarys
  • Mediainfo: Clic para Mostrar Datos Ver
  • Format                                   : Matroska
    Format version                           : Version 4 / Version 2
    File size                                : 3.01 GiB
    Duration                                 : 1 h 34 min
    Overall bit rate                         : 4 576 kb/s
    Movie name                               : CinemaniaHDD.com
    Encoded date                             : UTC 2018-01-23 04:34:19 / UTC 2018-01-22T19:02:35Z
    Writing application                      : mkvmerge v15.0.0 ('Duel with the Devil') 64-bit
    Writing library                          : libebml v1.3.5 + libmatroska v1.4.5 / Lavf57.7.2

    Video
    ID                                       : 1
    Format                                   : AVC
    Format/Info                              : Advanced Video Codec
    Format profile                           : High@L4.1
    Format settings                          : CABAC / 4 Ref Frames
    Format settings, CABAC                   : Yes
    Format settings, RefFrames               : 4 frames
    Codec ID                                 : V_MPEG4/ISO/AVC
    Duration                                 : 1 h 34 min
    Bit rate                                 : 3 205 kb/s
    Width                                    : 1 920 pixels
    Height                                   : 1 080 pixels
    Display aspect ratio                     : 16:9
    Frame rate mode                          : Constant
    Frame rate                               : 23.976 (24000/1001) FPS
    Color space                              : YUV
    Chroma subsampling                       : 4:2:0
    Bit depth                                : 8 bits
    Scan type                                : Progressive
    Bits/(Pixel*Frame)                       : 0.064
    Stream size                              : 2.11 GiB (70%)
    Title                                    : Valiente (2012) Full 1080p Latino
    Writing library                          : x264 core 148 r2708 86b7198
    Encoding settings                        : cabac=1 / ref=4 / deblock=1:0:0 / analyse=0x3:0x133 / me=esa / subme=10 / psy=1 / psy_rd=1.00:0.00 / mixed_ref=1 / me_range=24 / chroma_me=1 / trellis=2 / 8x8dct=1 / cqm=0 / deadzone=21,11 / fast_pskip=1 / chroma_qp_offset=-2 / threads=34 / lookahead_threads=5 / sliced_threads=0 / nr=0 / decimate=1 / interlaced=0 / bluray_compat=0 / constrained_intra=0 / bframes=8 / b_pyramid=2 / b_adapt=2 / b_bias=0 / direct=3 / weightb=1 / open_gop=0 / weightp=2 / keyint=240 / keyint_min=24 / scenecut=40 / intra_refresh=0 / rc_lookahead=60 / rc=crf / mbtree=1 / crf=20.0 / qcomp=0.60 / qpmin=0 / qpmax=69 / qpstep=4 / vbv_maxrate=62500 / vbv_bufsize=78125 / crf_max=0.0 / nal_hrd=none / filler=0 / ip_ratio=1.40 / aq=1:1.00
    Language                                 : English
    Default                                  : Yes
    Forced                                   : No
    Color range                              : Limited
    Color primaries                          : BT.709
    Transfer characteristics                 : BT.709
    Matrix coefficients                      : BT.709
    Statistics Tags Issue                    : mkvmerge v15.0.0 ('Duel with the Devil') 64-bit 2018-01-23 04:34:19 / mkvmerge v15.0.0 ('Duel with the Devil') 64-bit 2018-01-23 04:34:19 / UTC 2018-01-22T19:02:35Z
    FromStats_BitRate                        : 3275345
    FromStats_Duration                       : 01:34:12.314000000
    FromStats_FrameCount                     : 135520
    FromStats_StreamSize                     : 2314160101

    Audio #1
    ID                                       : 2
    Format                                   : AC-3
    Format/Info                              : Audio Coding 3
    Format settings, Endianness              : Big
    Codec ID                                 : A_AC3
    Duration                                 : 1 h 34 min
    Bit rate mode                            : Constant
    Bit rate                                 : 640 kb/s
    Channel(s)                               : 6 channels
    Channel positions                        : Front: L C R, Side: L R, LFE
    Sampling rate                            : 48.0 kHz
    Frame rate                               : 31.250 FPS (1536 SPF)
    Bit depth                                : 16 bits
    Compression mode                         : Lossy
    Stream size                              : 431 MiB (14%)
    Language                                 : Spanish
    Service kind                             : Complete Main
    Default                                  : Yes
    Forced                                   : No
    Statistics Tags Issue                    : mkvmerge v15.0.0 ('Duel with the Devil') 64-bit 2018-01-23 04:34:19 / mkvmerge v15.0.0 ('Duel with the Devil') 64-bit 2018-01-23 04:34:19 / UTC 2018-01-22T19:02:35Z
    FromStats_BitRate                        : 640000
    FromStats_Duration                       : 01:34:12.384000000
    FromStats_FrameCount                     : 176637
    FromStats_StreamSize                     : 452190720

    Audio #2
    ID                                       : 3
    Format                                   : AC-3
    Format/Info                              : Audio Coding 3
    Format settings, Endianness              : Big
    Codec ID                                 : A_AC3
    Duration                                 : 1 h 34 min
    Bit rate mode                            : Constant
    Bit rate                                 : 640 kb/s
    Channel(s)                               : 6 channels
    Channel positions                        : Front: L C R, Side: L R, LFE
    Sampling rate                            : 48.0 kHz
    Frame rate                               : 31.250 FPS (1536 SPF)
    Bit depth                                : 16 bits
    Compression mode                         : Lossy
    Stream size                              : 431 MiB (14%)
    Language                                 : English
    Service kind                             : Complete Main
    Default                                  : No
    Forced                                   : No
    Statistics Tags Issue                    : mkvmerge v15.0.0 ('Duel with the Devil') 64-bit 2018-01-23 04:34:19 / mkvmerge v15.0.0 ('Duel with the Devil') 64-bit 2018-01-23 04:34:19 / UTC 2018-01-22T19:02:35Z
    FromStats_BitRate                        : 640000
    FromStats_Duration                       : 01:34:12.384000000
    FromStats_FrameCount                     : 176637
    FromStats_StreamSize                     : 452190720

    Text #1
    ID                                       : 4
    Format                                   : PGS
    Muxing mode                              : zlib
    Codec ID                                 : S_HDMV/PGS
    Codec ID/Info                            : Picture based subtitle format used on BDs/HD-DVDs
    Language                                 : English
    Default                                  : No
    Forced                                   : No
    Statistics Tags Issue                    : mkvmerge v15.0.0 ('Duel with the Devil') 64-bit 2018-01-23 04:34:19 / mkvmerge v15.0.0 ('Duel with the Devil') 64-bit 2018-01-23 04:34:19 / UTC 2018-01-22T19:02:35Z
    FromStats_BitRate                        : 36368
    FromStats_Duration                       : 01:32:56.638000000
    FromStats_FrameCount                     : 2805
    FromStats_StreamSize                     : 25351590

    Text #2
    ID                                       : 5
    Format                                   : PGS
    Muxing mode                              : zlib
    Codec ID                                 : S_HDMV/PGS
    Codec ID/Info                            : Picture based subtitle format used on BDs/HD-DVDs
    Language                                 : Spanish
    Default                                  : No
    Forced                                   : No
    Statistics Tags Issue                    : mkvmerge v15.0.0 ('Duel with the Devil') 64-bit 2018-01-23 04:34:19 / mkvmerge v15.0.0 ('Duel with the Devil') 64-bit 2018-01-23 04:34:19 / UTC 2018-01-22T19:02:35Z
    FromStats_BitRate                        : 22486
    FromStats_Duration                       : 01:32:57.014000000
    FromStats_FrameCount                     : 1477
    FromStats_StreamSize                     : 15675637

    Menu
    00:00:00.000                             : :Chapter 1
    00:04:22.929                             : :Chapter 2
    00:09:17.515                             : :Chapter 3
    00:12:53.439                             : :Chapter 4
    00:14:00.340                             : :Chapter 5
    00:16:10.553                             : :Chapter 6
    00:17:36.764                             : :Chapter 7
    00:22:55.875                             : :Chapter 8
    00:27:22.975                             : :Chapter 9
    00:28:51.313                             : :Chapter 10
    00:30:54.936                             : :Chapter 11
    00:34:00.455                             : :Chapter 12
    00:36:03.578                             : :Chapter 13
    00:39:07.011                             : :Chapter 14
    00:41:55.179                             : :Chapter 15
    00:43:28.064                             : :Chapter 16
    00:47:05.823                             : :Chapter 17
    00:48:22.441                             : :Chapter 18
    00:51:04.144                             : :Chapter 19
    00:52:33.942                             : :Chapter 20
    00:54:01.238                             : :Chapter 21
    00:54:45.783                             : :Chapter 22
    00:57:30.948                             : :Chapter 23
    00:59:00.245                             : :Chapter 24
    01:02:48.265                             : :Chapter 25
    01:03:27.470                             : :Chapter 26
    01:09:57.819                             : :Chapter 27
    01:10:37.358                             : :Chapter 28
    01:12:35.810                             : :Chapter 29
    01:13:39.582                             : :Chapter 30
    01:15:35.406                             : :Chapter 31
    01:16:59.156                             : :Chapter 32
    01:17:37.194                             : :Chapter 33
    01:19:48.284                             : :Chapter 34
    01:23:16.867                             : :Chapter 35
    01:24:38.782                             : :Chapter 36
    01:33:27.727                             : :Chapter 37

  • Peso: 3.01 GiB

Sinopsis

Merida, la indómita hija del Rey Fergus y de la Reina Elinor, es una hábil arquera que decide romper con una antigua costumbre, que es sagrada para los señores de la tierra: el gigantesco Lord MacGuffin, el malhumorado Lord Macintosh y el cascarrabias Lord Dingwall. Las acciones de Merida desencadenan el caos y la furia en el reino. Además, pide ayuda a una sabia anciana que le concede un deseo muy desafortunado. La muchacha tendrá que afrontar grandes peligros antes de aprender qué es la auténtica valentía.

Ficha técnica

Video trailer de la película

Enlaces de descarga

Rip de Bluray

Descargar Valiente (2012) Full 1080p Latino




Aportes de DPeliculasHDmega la pass es:dpeliculashdmega.org Aportes de CinemaniaHD la pass es:cinemaniahdd.com

Películas relacionadas

  • Niños del hombre (2006) Full 1080p Latino

    2006
    Niños del hombre (2006) Full 1080p Latino

    0.0 1 h 49 min 2006

    Año 2027: el ser humano está al borde de la extinción: los hombres han perdido la capacidad de procrear...

    Director: Terry Needham

    Género: Acción

    Actores: Yolanda Vazquez

  • Winchester (2018) 1080p Latino

    2018
    Winchester (2018) 1080p Latino

    0.0 1h 39m 2018

    A finales del siglo XIX, después de la trágica muerte de su marido y su hijo, Sarah construye una casa-fortaleza...

    Director: Peter Spierig

    Género: Fantasía

    Actores: Xavier Gouault

  • Unlocked (2017) 1080p Latino

    2017
    Unlocked (2017) 1080p Latino

    3.0 1h 43m 2017

    Gira en torno a una agente de la CIA, especializada en interrogatorios, que es engañada por un sospechoso,...

    Director: Vera Homolacova

    Género: Acción

    Actores: Tosin Cole

  • Para atrapar al ladrón (1955) Full 1080p Latino

    1955
    Para atrapar al ladrón (1955) Full 1080p Latino

    0.0 1h 46m 1955

    A pesar de que John Robie "El Gato" (Cary Grant) es un ladrón de joyas reformado, se convierte en el...

    Director: Alfred Hitchcock

    Género: Crimen

    Actores: William 'Wee Willie' Davis

Comentarios 3
  • Tio Higuera - 24 enero, 2018

    Muy buena.

  • rodrigo69 - 23 enero, 2018

    gracias por la pelicula, tendras enredados

    • Dracarys - 23 enero, 2018

      Pronto Saludos