Violet Evergarden (2018) NF 1080p Latino

9.572 vistas
1 estrella2 estrellas3 estrellas4 estrellas5 estrellas (6 votos, promedio: 4,33 de 5)
Cargando…

Información de Violet Evergarden (2018) NF 1080p Latino

Datos de la película

  • Calidad: WEBDL
  • Audio: Se especifica abajo de la Sinopsis
  • Subtitulos: Español Latino SRT- FORZADOS SRT
  • Resolución: 1920X1080p
  • Formato: MKV
  • Codec: H.264
  • Encoder: cinemaniahd
  • Mediainfo: Clic para Mostrar Datos Ver
  • Format                                   : Matroska
    Format version                           : Version 4 / Version 2
    File size                                : 642 MiB
    Duration                                 : 24 min 13 s
    Overall bit rate mode                    : Variable
    Overall bit rate                         : 3 701 kb/s
    Movie name                               : CinemaniaHDD.com
    Encoded date                             : UTC 2018-01-11 13:35:26
    Writing application                      : mkvmerge v15.0.0 ('Duel with the Devil') 64-bit
    Writing library                          : libebml v1.3.5 + libmatroska v1.4.5

    Video
    ID                                       : 1
    Format                                   : AVC
    Format/Info                              : Advanced Video Codec
    Format profile                           : Main@L4
    Format settings                          : CABAC / 3 Ref Frames
    Format settings, CABAC                   : Yes
    Format settings, RefFrames               : 3 frames
    Codec ID                                 : V_MPEG4/ISO/AVC
    Duration                                 : 24 min 13 s
    Bit rate mode                            : Variable
    Bit rate                                 : 3 480 kb/s
    Maximum bit rate                         : 5 220 kb/s
    Width                                    : 1 920 pixels
    Height                                   : 1 080 pixels
    Display aspect ratio                     : 16:9
    Frame rate mode                          : Constant
    Frame rate                               : 23.976 (24000/1001) FPS
    Color space                              : YUV
    Chroma subsampling                       : 4:2:0
    Bit depth                                : 8 bits
    Scan type                                : Progressive
    Bits/(Pixel*Frame)                       : 0.070
    Stream size                              : 597 MiB (93%)
    Title                                    : Violet Evergarden (2018) WEB-DL Cap-1 1080p Latino
    Writing library                          : x264 core 148 r2714 2daf636
    Encoding settings                        : cabac=1 / ref=3 / deblock=1:0:0 / analyse=0x1:0x111 / me=umh / subme=10 / psy=1 / psy_rd=1.00:0.00 / mixed_ref=1 / me_range=24 / chroma_me=1 / trellis=2 / 8x8dct=0 / cqm=0 / deadzone=21,11 / fast_pskip=1 / chroma_qp_offset=-2 / threads=8 / lookahead_threads=1 / sliced_threads=0 / nr=0 / decimate=1 / interlaced=0 / bluray_compat=0 / stitchable=1 / constrained_intra=0 / bframes=2 / b_pyramid=0 / b_adapt=2 / b_bias=0 / direct=3 / weightb=1 / open_gop=0 / weightp=2 / keyint=48 / keyint_min=25 / scenecut=0 / intra_refresh=0 / rc_lookahead=48 / rc=2pass / mbtree=1 / bitrate=3480 / ratetol=1.0 / qcomp=0.50 / qpmin=6 / qpmax=51 / qpstep=4 / cplxblur=20.0 / qblur=0.5 / vbv_maxrate=5220 / vbv_bufsize=6960 / nal_hrd=vbr / filler=0 / ip_ratio=1.40 / aq=1:1.00
    Language                                 : Japanese
    Default                                  : Yes
    Forced                                   : No

    Audio #1
    ID                                       : 2
    Format                                   : E-AC-3
    Format/Info                              : Enhanced Audio Coding 3
    Format settings, Endianness              : Big
    Codec ID                                 : A_EAC3
    Duration                                 : 24 min 13 s
    Bit rate mode                            : Constant
    Bit rate                                 : 128 kb/s
    Channel(s)                               : 2 channels
    Channel positions                        : Front: L R
    Sampling rate                            : 48.0 kHz
    Frame rate                               : 187.500 FPS (256 SPF)
    Compression mode                         : Lossy
    Stream size                              : 22.2 MiB (3%)
    Language                                 : Spanish
    Service kind                             : Complete Main
    Default                                  : No
    Forced                                   : No

    Audio #2
    ID                                       : 3
    Format                                   : E-AC-3
    Format/Info                              : Enhanced Audio Coding 3
    Format settings, Endianness              : Big
    Codec ID                                 : A_EAC3
    Duration                                 : 24 min 13 s
    Bit rate mode                            : Constant
    Bit rate                                 : 128 kb/s
    Channel(s)                               : 2 channels
    Channel positions                        : Front: L R
    Sampling rate                            : 48.0 kHz
    Frame rate                               : 187.500 FPS (256 SPF)
    Compression mode                         : Lossy
    Stream size                              : 22.2 MiB (3%)
    Language                                 : Japanese
    Service kind                             : Complete Main
    Default                                  : No
    Forced                                   : No

    Text #1
    ID                                       : 4
    Format                                   : UTF-8
    Codec ID                                 : S_TEXT/UTF8
    Codec ID/Info                            : UTF-8 Plain Text
    Duration                                 : 23 min 46 s
    Bit rate                                 : 0 b/s
    Count of elements                        : 4
    Stream size                              : 142 Bytes (0%)
    Title                                    : Forzados
    Language                                 : Spanish
    Default                                  : Yes
    Forced                                   : Yes

    Text #2
    ID                                       : 5
    Format                                   : UTF-8
    Codec ID                                 : S_TEXT/UTF8
    Codec ID/Info                            : UTF-8 Plain Text
    Duration                                 : 23 min 46 s
    Bit rate                                 : 55 b/s
    Count of elements                        : 325
    Stream size                              : 9.58 KiB (0%)
    Title                                    : Completos
    Language                                 : Spanish
    Default                                  : No
    Forced                                   : No

     

  • Peso: 650 MiB C/U 13 Capitulos

Sinopsis

La historia se centra alrededor de las llamadas “Auto Memory Dolls”; muñecas inicialmente creadas por un científico para asistir a su esposa ciega a escribir sus novelas y, luego, rentarlas a personas que necesitan de sus servicios. Mientras que la función inicial de las Auto Memory Dolls es solo generar las voces a texto, un segundo grupo de personas creó una compañía que renta hermosas y talentosas mujeres quienes, teniendo las mismas funciones que una Auto Memory Doll original, también pueden realizar tareas relacionadas con la milicia o el ejército.

 

Audios: Latino E-AC3 2.0 Netflix – Japones E-AC3 2.0 Netflix

Ficha técnica

  • Titulo original: ヴァイオレット・エヴァーガーデン
  • Fecha de lanzamiento: 10-01-2018 (JP)
  • Género: Animación, Drama, Sci-Fi & Fantasy, Series
  • Puntuación: 4.3 6 votos
  • Duración:
    24 min 13 s

Video trailer de la película

Enlaces de descarga

Rip de Bluray

Descargar Violet Evergarden (2018) NF 1080p Latino




Aportes de DPeliculasHDmega la pass es:dpeliculashdmega.org Aportes de CinemaniaHD la pass es:cinemaniahdd.com

Películas relacionadas

  • Milagros inesperados (1999) Full 1080p Latino

    1999
    Milagros inesperados (1999) Full 1080p Latino

    5.0 3h 9m 1999

    En el sur de los Estados Unidos, en plena Depresión, Paul Edgecomb es un vigilante penitenciario a cargo...

    Director: Susan Malerstein

    Género: Crimen

    Actores: William Sadler

  • La terminal (2004) Full 1080p Latino

    2004
    La terminal (2004) Full 1080p Latino

    5.0 2 h 8 min 2004

    Basado en hechos reales, Viktor Navorski (Tom Hanks) es un inmigrante balcánico que, al estallar la...

    Director: Steven Spielberg

    Género: Comedia

    Actores: Zoe Saldana

  • La invención de Cronos (1993) Full 1080p Latino

    1993
    La invención de Cronos (1993) Full 1080p Latino

    0.0 1 h 32 min 1993

    Cronos es un artefacto creado por un alquimista medieval, en cuyo interior se encuentra instalado un...

    Director: Guillermo del Toro

    Género: Drama

    Actores: Tamara Shanath

  • Bullitt (1968) Full 1080p Latino

    1968
    Bullitt (1968) Full 1080p Latino

    0.0 1h 53m 1968

    Frank Bullit es un detective de la policía de San Francisco. Un ambicioso político le encarga que proteja...

    Director: Tim Zinnemann

    Género: Acción

    Actores: Vic Tayback

Comentarios 28
  • alvaro - 27 marzo, 2018

    el capitulo 4 los 3 links estan muertos, el de drive mande solicitud de permiso, pero del resto no me deja bajarlo. por favor resubir

    • dpelis - 28 marzo, 2018

      reparado 4, aunq mega esta online

  • Erick - 05 marzo, 2018

    mi duda es por que el audio de los capítulos 1, 2 y 5 no se reproducen en mi smart tv es porque son WEBDL?

    • dpelis - 05 marzo, 2018

      es porque el audio es E-AC3. hay q pasar a ac3.

      • Erick - 08 marzo, 2018

        y con que programa lo puedo convertir.

        • dpelis - 12 marzo, 2018

          pruebe atube cacher

  • cacaroto - 21 febrero, 2018

    oe bro ultimamentrre stas subiendo peliculas 4k descargue 2 ´peliculas en 4k y no reproduce mi tv atrves de bluray y es smartv 4k mas peliculas plateadas ps un favor

  • Slash - 09 febrero, 2018

    Gracias por traerla, saludos.

  • uwu - 20 enero, 2018

    estuve 10 minutos intentando lo de “has click en un anuncio y espera 30 segundo” intente todo pero nada funciono, porfavor arreglarlo, muchas gracias.

  • Jaja - 19 enero, 2018

    Amigos y los que no usamos Mega dowloander ni u otro gestor de descarga solo el megasync que es el programa oficial de mega ya que yo si pago mega y tengo ancho de banda ilimitado han pensando en nosotros? 🙁

    • dpelis - 19 enero, 2018

      porque sufrir por mega.
      usar google drive la mejor opcion.

  • LyruG - 19 enero, 2018

    Estupendo, gracias por el capitulo!!

  • zack - 18 enero, 2018

    gracias, esta super, creo que sera uno de los mejores este año es muy bueno con solo lo que evisto me encanto, gracias por el aporte sigue asi 😉

  • uwu - 18 enero, 2018

    cuando saldrá el capitulo 2?, pd: muchas gracias por los caps

    • Dracarys - 29 enero, 2018

      Cada viernes nuevo capitulo

  • Dana - 17 enero, 2018

    Muy bueno, mucha publicidad para el link eso si, pero por la excelente calidad y el audio latino no hay quejas. Puedo decir que la historia te llega mas al corazon en audio latino, segundo en japones, y en español descartado, la voz de la niña parece de 30 años :/ Ostias.

    • dpelis - 17 enero, 2018

      la publicidad es un acortador el cual le permite usar bloqueador de anuncios.

  • uwu - 12 enero, 2018

    disculpa cual es la contraseña?

    • Dpelis2 - 12 enero, 2018

      cinemaniahdd.com

  • LyruG - 12 enero, 2018

    Gracias por el capitulo!!, calidad estupenda

  • Enrique - 12 enero, 2018

    Gracias los links de mega no sirven pero los de google estan perfectos 😀

  • fufuri - 11 enero, 2018

    ¿Por que siempre los enlaces de mega me dice esto “El enlace al que intentas acceder no es válido”?

  • cristofer - 11 enero, 2018

    gracias, espero ansioso cada semana el capitulo por favor, ustedes tienen la mejor calidad 😀

  • Andres L - 11 enero, 2018

    Gracias!, wow que sorpresa no me imaginaba que lo estaria descargando por aqui. Thanks a lot