Virgen a los 40 (2005) UNRATED Full 1080p Latino

1.080 vistas
1 estrella2 estrellas3 estrellas4 estrellas5 estrellas (Ninguna valoración todavía)
Cargando…

Información de Virgen a los 40 (2005) UNRATED Full 1080p Latino

Datos de la película

  • Calidad: Full 1080p
  • Audio: Español Latino AC3 5.1 DVD - Ingles DTS 5.1 BLURAY
  • Subtitulos: Español PGS - Ingles PGS
  • Resolución: 1920X1080
  • Formato: MKV
  • Codec: H.264
  • Encoder: Dpelis
  • Mediainfo: Clic para Mostrar Datos Ver
  • Format                                   : Matroska
    Format version                           : Version 4 / Version 2
    File size                                : 6.99 GiB
    Duration                                 : 2 h 12 min
    Overall bit rate                         : 7 559 kb/s
    Movie name                               : dpeliculashdmega.org
    Encoded date                             : UTC 2017-11-24 01:50:29 / UTC 2017-11-23T16:01:53Z
    Writing application                      : mkvmerge v15.0.0 ('Duel with the Devil') 64-bit
    Writing library                          : libebml v1.3.5 + libmatroska v1.4.5 / Lavf57.7.2

    Video
    ID                                       : 1
    Format                                   : AVC
    Format/Info                              : Advanced Video Codec
    Format profile                           : High@L4.1
    Format settings                          : CABAC / 4 Ref Frames
    Format settings, CABAC                   : Yes
    Format settings, RefFrames               : 4 frames
    Codec ID                                 : V_MPEG4/ISO/AVC
    Duration                                 : 2 h 12 min
    Bit rate                                 : 5 516 kb/s
    Width                                    : 1 920 pixels
    Height                                   : 1 080 pixels
    Display aspect ratio                     : 16:9
    Frame rate mode                          : Constant
    Frame rate                               : 23.976 (24000/1001) FPS
    Color space                              : YUV
    Chroma subsampling                       : 4:2:0
    Bit depth                                : 8 bits
    Scan type                                : Progressive
    Bits/(Pixel*Frame)                       : 0.111
    Stream size                              : 5.10 GiB (73%)
    Title                                    : Virgen a los 40 (2005) UNRATED Full 1080p Latino
    Writing library                          : x264 core 148 r2708 86b7198
    Encoding settings                        : cabac=1 / ref=4 / deblock=1:0:0 / analyse=0x3:0x133 / me=esa / subme=10 / psy=1 / psy_rd=1.00:0.00 / mixed_ref=1 / me_range=24 / chroma_me=1 / trellis=2 / 8x8dct=1 / cqm=0 / deadzone=21,11 / fast_pskip=1 / chroma_qp_offset=-2 / threads=34 / lookahead_threads=5 / sliced_threads=0 / nr=0 / decimate=1 / interlaced=0 / bluray_compat=0 / constrained_intra=0 / bframes=8 / b_pyramid=2 / b_adapt=2 / b_bias=0 / direct=3 / weightb=1 / open_gop=0 / weightp=2 / keyint=240 / keyint_min=24 / scenecut=40 / intra_refresh=0 / rc_lookahead=60 / rc=crf / mbtree=1 / crf=20.0 / qcomp=0.60 / qpmin=0 / qpmax=69 / qpstep=4 / vbv_maxrate=62500 / vbv_bufsize=78125 / crf_max=0.0 / nal_hrd=none / filler=0 / ip_ratio=1.40 / aq=1:1.00
    Language                                 : English
    Default                                  : Yes
    Forced                                   : No
    Color range                              : Limited
    Color primaries                          : BT.709
    Transfer characteristics                 : BT.709
    Matrix coefficients                      : BT.709
    Statistics Tags Issue                    : mkvmerge v15.0.0 ('Duel with the Devil') 64-bit 2017-11-24 01:50:29 / mkvmerge v15.0.0 ('Duel with the Devil') 64-bit 2017-11-24 01:50:29 / UTC 2017-11-23T16:01:53Z
    FromStats_BitRate                        : 5630657
    FromStats_Duration                       : 02:12:27.231000000
    FromStats_FrameCount                     : 190543
    FromStats_StreamSize                     : 5593517197

    Audio #1
    ID                                       : 2
    Format                                   : AC-3
    Format/Info                              : Audio Coding 3
    Format settings, Endianness              : Big
    Codec ID                                 : A_AC3
    Duration                                 : 2 h 12 min
    Bit rate mode                            : Constant
    Bit rate                                 : 384 kb/s
    Channel(s)                               : 6 channels
    Channel positions                        : Front: L C R, Side: L R, LFE
    Sampling rate                            : 48.0 kHz
    Frame rate                               : 31.250 FPS (1536 SPF)
    Bit depth                                : 16 bits
    Compression mode                         : Lossy
    Delay relative to video                  : 1 s 100 ms
    Stream size                              : 364 MiB (5%)
    Title                                    : Latino-AC3
    Language                                 : Spanish
    Service kind                             : Complete Main
    Default                                  : Yes
    Forced                                   : No
    Statistics Tags Issue                    : mkvmerge v15.0.0 ('Duel with the Devil') 64-bit 2017-11-24 01:50:29 / mkvmerge v15.0.0 ('Duel with the Devil') 64-bit 2017-11-24 01:50:29 / UTC 2017-11-23T16:01:53Z
    FromStats_BitRate                        : 384000
    FromStats_Duration                       : 02:12:26.368000000
    FromStats_FrameCount                     : 248324
    FromStats_StreamSize                     : 381425664

    Audio #2
    ID                                       : 3
    Format                                   : DTS
    Format/Info                              : Digital Theater Systems
    Mode                                     : 16
    Format settings, Endianness              : Big
    Codec ID                                 : A_DTS
    Duration                                 : 2 h 12 min
    Bit rate mode                            : Constant
    Bit rate                                 : 1 509 kb/s
    Channel(s)                               : 6 channels
    Channel positions                        : Front: L C R, Side: L R, LFE
    Sampling rate                            : 48.0 kHz
    Frame rate                               : 93.750 FPS (512 SPF)
    Bit depth                                : 24 bits
    Compression mode                         : Lossy
    Stream size                              : 1.40 GiB (20%)
    Title                                    : Ingles-DTS
    Language                                 : English
    Default                                  : No
    Forced                                   : No
    Statistics Tags Issue                    : mkvmerge v15.0.0 ('Duel with the Devil') 64-bit 2017-11-24 01:50:29 / mkvmerge v15.0.0 ('Duel with the Devil') 64-bit 2017-11-24 01:50:29 / UTC 2017-11-23T16:01:53Z
    FromStats_BitRate                        : 1509000
    FromStats_Duration                       : 02:12:27.232000000
    FromStats_FrameCount                     : 745053
    FromStats_StreamSize                     : 1499046636

    Text #1
    ID                                       : 4
    Format                                   : PGS
    Muxing mode                              : zlib
    Codec ID                                 : S_HDMV/PGS
    Codec ID/Info                            : Picture based subtitle format used on BDs/HD-DVDs
    Language                                 : English
    Default                                  : No
    Forced                                   : No
    Statistics Tags Issue                    : mkvmerge v15.0.0 ('Duel with the Devil') 64-bit 2017-11-24 01:50:29 / mkvmerge v15.0.0 ('Duel with the Devil') 64-bit 2017-11-24 01:50:29 / UTC 2017-11-23T16:01:53Z
    FromStats_BitRate                        : 60570
    FromStats_Duration                       : 02:09:53.494000000
    FromStats_FrameCount                     : 5434
    FromStats_StreamSize                     : 59006932

    Text #2
    ID                                       : 5
    Format                                   : PGS
    Muxing mode                              : zlib
    Codec ID                                 : S_HDMV/PGS
    Codec ID/Info                            : Picture based subtitle format used on BDs/HD-DVDs
    Language                                 : Spanish
    Default                                  : No
    Forced                                   : No
    Statistics Tags Issue                    : mkvmerge v15.0.0 ('Duel with the Devil') 64-bit 2017-11-24 01:50:29 / mkvmerge v15.0.0 ('Duel with the Devil') 64-bit 2017-11-24 01:50:29 / UTC 2017-11-23T16:01:53Z
    FromStats_BitRate                        : 52474
    FromStats_Duration                       : 02:10:29.321000000
    FromStats_FrameCount                     : 5068
    FromStats_StreamSize                     : 51355413

    Menu
    00:00:00.000                             : :Morning Wood
    00:08:43.189                             : :A Bag of Sand
    00:14:32.997                             : :It Just Never Happened
    00:22:52.663                             : :Hit on Drunk Chicks
    00:32:07.801                             : :Andy Pulls a Number
    00:38:17.086                             : :Waxing
    00:43:57.218                             : :Planting Seeds
    00:48:40.626                             : :Box O' Porn
    00:54:44.406                             : :Speed Dating
    01:05:00.021                             : :A Date with Trish
    01:10:44.240                             : :Teach Me
    01:17:18.634                             : :Paula Offers Herself
    01:21:27.132                             : :No Sex for 20 Dates
    01:27:54.603                             : :Jay's Tears
    01:35:01.821                             : :Outercourse
    01:41:56.694                             : :Andy's 20Th Date
    01:48:05.729                             : :Beth in the Bath
    01:58:59.215                             : :Heat of the Moment
    02:03:46.920                             : :Age of Aquarius
    02:08:55.144                             : :End Titles

     

  • Peso: 6.99 GiB

Sinopsis

Andy Stitzer, de 40 años, ha hecho pocas cosas en su vida. Tiene un trabajo mediocre sellando facturas en una tienda de electrodomésticos, un lindo apartamento con una colección de cómics, buenos amigos… Pero hay una cosa que aun no ha conseguido, y que la mayoría a su edad sí. Andy nunca ha tenido relaciones sexuales.

Ficha técnica

Video trailer de la película

Enlaces de descarga

Rip de Bluray

Descargar Virgen a los 40 (2005) UNRATED Full 1080p Latino




Aportes de DPeliculasHDmega la pass es:dpeliculashdmega.org Aportes de CinemaniaHD la pass es:cinemaniahdd.com

Películas relacionadas

  • Niños del hombre (2006) Full 1080p Latino

    2006
    Niños del hombre (2006) Full 1080p Latino

    0.0 1 h 49 min 2006

    Año 2027: el ser humano está al borde de la extinción: los hombres han perdido la capacidad de procrear...

    Director: Terry Needham

    Género: Acción

    Actores: Yolanda Vazquez

  • Para atrapar al ladrón (1955) Full 1080p Latino

    1955
    Para atrapar al ladrón (1955) Full 1080p Latino

    0.0 1h 46m 1955

    A pesar de que John Robie "El Gato" (Cary Grant) es un ladrón de joyas reformado, se convierte en el...

    Director: Alfred Hitchcock

    Género: Crimen

    Actores: William 'Wee Willie' Davis

  • Si decido quedarme (2014) Full 1080p Latino

    2014
    Si decido quedarme (2014) Full 1080p Latino

    5.0 1 h 46 min 2014

    Mia es una joven de 17 años que parece tenerlo todo en la vida: una famila adorable, un novio que la...

    Director: R.J. Cutler

    Género: Drama

    Actores: William C. Vaughan

  • Dude (2018) NF 1080p Latino

    2018
    Dude (2018) NF 1080p Latino

    5.0 1h 30m 2018

    Cuatro mejores amigas se tienen que enfrentar a su nueva vida. Las dos últimas semanas de instituto...

    Director: Olivia Milch

    Género: Comedia

    Actores: Sydney Lucas

Comentarios 1
  • slash - 09 diciembre, 2017

    Gracias.