Wheelman (2017) WEBDL 1080p Latino

946 vistas
1 estrella2 estrellas3 estrellas4 estrellas5 estrellas (Ninguna valoración todavía)
Cargando…

Información de Wheelman (2017) WEBDL 1080p Latino

Datos de la película

  • Calidad: WEBDL
  • Audio: Español Latino AC3 5.1 Netflix - Ingles AC3 5.1 Netflix
  • Subtitulos: Español Latino SRT - Ingles SRT
  • Resolución: 1920x1080p
  • Formato: MKV
  • Codec: H.264
  • Encoder: Dpelis
  • Mediainfo: Clic para Mostrar Datos Ver
  • Wheelman (2017) WEBDL 1080p Latino.mkv
    Format                      : Matroska
    Format version              : Version 4 / Version 2
    File size                   : 1.69 GiB
    Duration                    : 1 h 22 min
    Overall bit rate mode       : Variable
    Overall bit rate            : 2 936 kb/s
    Movie name                  : DPeliculasHDMega.ORG
    Encoded date                : UTC 2017-10-20 13:45:33
    Writing application         : mkvmerge v10.0.0 ('To Drown In You') 64bit
    Writing library             : libebml v1.3.4 + libmatroska v1.4.5

    Video
    ID                          : 1
    Format                      : AVC
    Format/Info                 : Advanced Video Codec
    Format profile              : [email protected]
    Format settings, CABAC      : Yes
    Format settings, RefFrames  : 3 frames
    Codec ID                    : V_MPEG4/ISO/AVC
    Duration                    : 1 h 22 min
    Bit rate mode               : Variable
    Bit rate                    : 2 370 kb/s
    Maximum bit rate            : 3 555 kb/s
    Width                       : 1 920 pixels
    Height                      : 1 080 pixels
    Display aspect ratio        : 16:9
    Frame rate mode             : Constant
    Frame rate                  : 23.976 (24000/1001) FPS
    Color space                 : YUV
    Chroma subsampling          : 4:2:0
    Bit depth                   : 8 bits
    Scan type                   : Progressive
    Bits/(Pixel*Frame)          : 0.048
    Stream size                 : 1.36 GiB (80%)
    Writing library             : x264 core 118
    Encoding settings           : cabac=1 / ref=3 / deblock=1:0:0 / analyse=0x1:0x111 / me=umh / subme=10 / psy=1 / psy_rd=1.00:0.00 / mixed_ref=1 / me_range=24 / chroma_me=1 / trellis=2 / 8x8dct=0 / cqm=0 / deadzone=21,11 / fast_pskip=1 / chroma_qp_offset=-2 / threads=6 / sliced_threads=0 / nr=0 / decimate=1 / interlaced=0 / bluray_compat=0 / constrained_intra=0 / bframes=2 / b_pyramid=0 / b_adapt=2 / b_bias=0 / direct=3 / weightb=1 / open_gop=0 / weightp=2 / keyint=48 / keyint_min=25 / scenecut=0 / intra_refresh=0 / rc_lookahead=0 / rc=2pass / mbtree=1 / bitrate=2370 / ratetol=1.0 / qcomp=0.50 / qpmin=6 / qpmax=51 / qpstep=4 / cplxblur=20.0 / qblur=0.5 / vbv_maxrate=3555 / vbv_bufsize=4740 / nal_hrd=vbr / ip_ratio=1.40 / aq=1:1.00
    Default                     : Yes
    Forced                      : No

    Audio #1
    ID                          : 2
    Format                      : E-AC-3
    Format/Info                 : Enhanced Audio Coding 3
    Format settings, Endianness : Big
    Codec ID                    : A_EAC3
    Duration                    : 1 h 22 min
    Bit rate mode               : Constant
    Bit rate                    : 192 kb/s
    Channel(s)                  : 6 channels
    Channel positions           : Front: L C R, Side: L R, LFE
    Sampling rate               : 48.0 kHz
    Frame rate                  : 187.500 FPS (256 SPF)
    Compression mode            : Lossy
    Stream size                 : 113 MiB (7%)
    Language                    : Spanish
    Service kind                : Complete Main
    Default                     : Yes
    Forced                      : No

    Audio #2
    ID                          : 3
    Format                      : AC-3
    Format/Info                 : Audio Coding 3
    Format settings, Endianness : Big
    Codec ID                    : A_AC3
    Duration                    : 1 h 22 min
    Bit rate mode               : Constant
    Bit rate                    : 384 kb/s
    Channel(s)                  : 6 channels
    Channel positions           : Front: L C R, Side: L R, LFE
    Sampling rate               : 48.0 kHz
    Frame rate                  : 31.250 FPS (1536 SPF)
    Bit depth                   : 16 bits
    Compression mode            : Lossy
    Stream size                 : 226 MiB (13%)
    Language                    : English
    Service kind                : Complete Main
    Default                     : No
    Forced                      : No

    Text #1
    ID                          : 4
    Format                      : UTF-8
    Codec ID                    : S_TEXT/UTF8
    Codec ID/Info               : UTF-8 Plain Text
    Duration                    : 1 h 19 min
    Bit rate                    : 58 b/s
    Count of elements           : 906
    Stream size                 : 34.5 KiB (0%)
    Language                    : Spanish
    Default                     : No
    Forced                      : No

    Text #2
    ID                          : 5
    Format                      : UTF-8
    Codec ID                    : S_TEXT/UTF8
    Codec ID/Info               : UTF-8 Plain Text
    Duration                    : 1 h 16 min
    Bit rate                    : 76 b/s
    Count of elements           : 1095
    Stream size                 : 42.7 KiB (0%)
    Language                    : English
    Default                     : Yes
    Forced                      : No

    Text #3
    ID                          : 6
    Format                      : UTF-8
    Codec ID                    : S_TEXT/UTF8
    Codec ID/Info               : UTF-8 Plain Text
    Duration                    : 52 min 29 s
    Bit rate                    : 3 b/s
    Count of elements           : 55
    Stream size                 : 1.37 KiB (0%)
    Title                       : FORZADOS
    Language                    : Spanish
    Default                     : No
    Forced                      : No

  • Peso: 1.69 GB

Sinopsis

Durante el robo a un banco, las cosas no salen los atracadores preveían. Tras darse a la fuga con todo el botín, el conductor del coche de huida está sólo y se percata de que ha sido traicionado. Tendrá que acatar órdenes que le llegan desde un teléfono móvil para lograr huir y reunirse con su familia. La única persona de confianza será su hija de 14 años.

La película de acción original de Netflix que protagoniza Frank Grillo, conocido por interpretar a Crossbones en el Universo Cinematográfico de Marvel (Capitán America: Civil War), está dirigida por Jeremy Rush (serie Caribe Roads). Completan el reparto Caitlin Carmichael (300: El origen de un imperio) y Garret Dillahunt (12 años de esclavitud), entre otros.

Ficha técnica

  • Titulo original: Wheelman
  • Fecha de lanzamiento: 20-10-2017
  • Director: Jeremy Rush
  • Género: Acción, Suspense
  • Puntuación: 0.0 0 votos
  • Duración:
    1h 22m

Video trailer de la película

Enlaces de descarga

Descargar Wheelman (2017) WEBDL 1080p Latino

dpeliculas

Aportes de DPeliculasHDmega la pass es:dpeliculashdmega.org Aportes de CinemaniaHD la pass es:cinemaniahdd.com
Guardado en : Acción , Suspense

Películas relacionadas

  • Forgotten (2017) NF 1080p Latino

    2017
    Forgotten (2017) NF 1080p Latino

    5.0 1h 48m 2017

    Jin-seok, de 21 años, se muda a una nueva casa con su familia. Padece una esquizofrenia leve pero lleva...

    Director: Jang Hang-jun

    Género: Suspense

    Actores: Na Young-hee

  • Escuadrón suicida (2016) THEATRICAL 4K HDR Latino

    2016
    Escuadrón suicida (2016) THEATRICAL 4K HDR Latino

    5.0 2 h 2 min 2016

    Mientras el gobierno de EE.UU no tiene claro cómo responder a una visita alienígena a la Tierra con...

    Director: Shane B. Scott

    Género: 4K HDR

    Actores: William Hainsworth

  • Dos policías rebeldes (1995) Full 1080p Latino

    1995
    Dos policías rebeldes (1995) Full 1080p Latino

    5.0 1 h 58 min 1995

    Un alijo de heroína valorada en unos 100 millones de dólares es robado del mismísimo depósito de...

    Director: Michael Bay

    Género: Acción

    Actores: Will Smith

  • Actos De Venganza (2017) Full 1080p Latino

    2017
    Actos De Venganza (2017) Full 1080p Latino

    5.0 1 h 27 min 2017

    Antonio Banderas se meterá en la piel de un abogado que sufre un tremendo trauma al perder a su mujer...

    Director: Isaac Florentine

    Género: Acción

    Actores: Robert Forster

Comentarios 0