X-Men Origins Wolverine (2009) Full 1080p Latino

476 vistas
1 estrella2 estrellas3 estrellas4 estrellas5 estrellas (Ninguna valoración todavía)
Cargando…

Información de X-Men Origins Wolverine (2009) Full 1080p Latino

Datos de la película

  • Calidad: Full 1080p
  • Audio: Español Latino DTS 5.1 BLURAY - Ingles DTS 5.1 BLURAY
  • Subtitulos: Español Latino PGS - Ingles PGS
  • Resolución: 1920x1080p
  • Formato: MKV
  • Codec: H.264
  • Encoder: Dracarys
  • Mediainfo: Clic para Mostrar Datos Ver
  • Format                                   : Matroska
    Format version                           : Version 4 / Version 2
    File size                                : 6.29 GiB
    Duration                                 : 1 h 47 min
    Overall bit rate                         : 8 384 kb/s
    Movie name                               : CinemaniaHDD.com
    Encoded date                             : UTC 2018-03-21 01:11:31 / UTC 2018-03-17T16:03:16Z
    Writing application                      : mkvmerge v15.0.0 ('Duel with the Devil') 64-bit
    Writing library                          : libebml v1.3.5 + libmatroska v1.4.5 / Lavf57.7.2

    Video
    ID                                       : 1
    Format                                   : AVC
    Format/Info                              : Advanced Video Codec
    Format profile                           : High@L4.1
    Format settings                          : CABAC / 4 Ref Frames
    Format settings, CABAC                   : Yes
    Format settings, RefFrames               : 4 frames
    Codec ID                                 : V_MPEG4/ISO/AVC
    Duration                                 : 1 h 47 min
    Bit rate                                 : 5 940 kb/s
    Width                                    : 1 920 pixels
    Height                                   : 1 080 pixels
    Display aspect ratio                     : 16:9
    Frame rate mode                          : Constant
    Frame rate                               : 23.976 (24000/1001) FPS
    Color space                              : YUV
    Chroma subsampling                       : 4:2:0
    Bit depth                                : 8 bits
    Scan type                                : Progressive
    Bits/(Pixel*Frame)                       : 0.119
    Stream size                              : 4.45 GiB (71%)
    Title                                    : X-Men Origins Wolverine (2009) Full 1080p Latino
    Writing library                          : x264 core 148 r2708 86b7198
    Encoding settings                        : cabac=1 / ref=4 / deblock=1:0:0 / analyse=0x3:0x133 / me=esa / subme=9 / psy=1 / psy_rd=1.00:0.00 / mixed_ref=1 / me_range=16 / chroma_me=1 / trellis=2 / 8x8dct=1 / cqm=0 / deadzone=21,11 / fast_pskip=1 / chroma_qp_offset=-2 / threads=34 / lookahead_threads=2 / sliced_threads=0 / nr=0 / decimate=1 / interlaced=0 / bluray_compat=0 / constrained_intra=0 / bframes=3 / b_pyramid=2 / b_adapt=2 / b_bias=0 / direct=3 / weightb=1 / open_gop=0 / weightp=2 / keyint=240 / keyint_min=24 / scenecut=40 / intra_refresh=0 / rc_lookahead=60 / rc=crf / mbtree=1 / crf=21.0 / qcomp=0.60 / qpmin=0 / qpmax=69 / qpstep=4 / vbv_maxrate=62500 / vbv_bufsize=78125 / crf_max=0.0 / nal_hrd=none / filler=0 / ip_ratio=1.40 / aq=1:1.00
    Language                                 : English
    Default                                  : Yes
    Forced                                   : No
    Color range                              : Limited
    Color primaries                          : BT.709
    Transfer characteristics                 : BT.709
    Matrix coefficients                      : BT.709
    Statistics Tags Issue                    : mkvmerge v15.0.0 ('Duel with the Devil') 64-bit 2018-03-21 01:11:31 / mkvmerge v15.0.0 ('Duel with the Devil') 64-bit 2018-03-21 01:11:31 / UTC 2018-03-17T16:03:16Z
    FromStats_BitRate                        : 6091607
    FromStats_Duration                       : 01:47:21.352000000
    FromStats_FrameCount                     : 154438
    FromStats_StreamSize                     : 4904773213

    Audio #1
    ID                                       : 2
    Format                                   : DTS
    Format/Info                              : Digital Theater Systems
    Mode                                     : 16
    Format settings, Endianness              : Big
    Codec ID                                 : A_DTS
    Duration                                 : 1 h 47 min
    Bit rate mode                            : Constant
    Bit rate                                 : 768 kb/s
    Channel(s)                               : 6 channels
    Channel positions                        : Front: L C R, Side: L R, LFE
    Sampling rate                            : 48.0 kHz
    Frame rate                               : 93.750 FPS (512 SPF)
    Bit depth                                : 24 bits
    Compression mode                         : Lossy
    Stream size                              : 590 MiB (9%)
    Language                                 : Spanish
    Default                                  : Yes
    Forced                                   : No
    Statistics Tags Issue                    : mkvmerge v15.0.0 ('Duel with the Devil') 64-bit 2018-03-21 01:11:31 / mkvmerge v15.0.0 ('Duel with the Devil') 64-bit 2018-03-21 01:11:31 / UTC 2018-03-17T16:03:16Z
    FromStats_BitRate                        : 767999
    FromStats_Duration                       : 01:47:22.187000000
    FromStats_FrameCount                     : 603955
    FromStats_StreamSize                     : 618449920

    Audio #2
    ID                                       : 3
    Format                                   : DTS
    Format/Info                              : Digital Theater Systems
    Mode                                     : 16
    Format settings, Endianness              : Big
    Codec ID                                 : A_DTS
    Duration                                 : 1 h 47 min
    Bit rate mode                            : Constant
    Bit rate                                 : 1 509 kb/s
    Channel(s)                               : 6 channels
    Channel positions                        : Front: L C R, Side: L R, LFE
    Sampling rate                            : 48.0 kHz
    Frame rate                               : 93.750 FPS (512 SPF)
    Bit depth                                : 24 bits
    Compression mode                         : Lossy
    Stream size                              : 1.13 GiB (18%)
    Language                                 : English
    Default                                  : No
    Forced                                   : No
    Statistics Tags Issue                    : mkvmerge v15.0.0 ('Duel with the Devil') 64-bit 2018-03-21 01:11:31 / mkvmerge v15.0.0 ('Duel with the Devil') 64-bit 2018-03-21 01:11:31 / UTC 2018-03-17T16:03:16Z
    FromStats_BitRate                        : 1508999
    FromStats_Duration                       : 01:47:21.387000000
    FromStats_FrameCount                     : 603880
    FromStats_StreamSize                     : 1215006560

    Text #1
    ID                                       : 4
    Format                                   : UTF-8
    Codec ID                                 : S_TEXT/UTF8
    Codec ID/Info                            : UTF-8 Plain Text
    Title                                    : SRT-Forzados
    Language                                 : Spanish
    Default                                  : Yes
    Forced                                   : Yes
    Statistics Tags Issue                    : mkvmerge v15.0.0 ('Duel with the Devil') 64-bit 2018-03-21 01:11:31 / mkvmerge v15.0.0 ('Duel with the Devil') 64-bit 2018-03-21 01:11:31 / UTC 2018-03-17T16:03:16Z
    FromStats_BitRate                        : 0
    FromStats_Duration                       : 00:17:11.029000000
    FromStats_FrameCount                     : 3
    FromStats_StreamSize                     : 79

    Text #2
    ID                                       : 5
    Format                                   : UTF-8
    Codec ID                                 : S_TEXT/UTF8
    Codec ID/Info                            : UTF-8 Plain Text
    Title                                    : SRT-Completos
    Language                                 : Spanish
    Default                                  : No
    Forced                                   : No
    Statistics Tags Issue                    : mkvmerge v15.0.0 ('Duel with the Devil') 64-bit 2018-03-21 01:11:31 / mkvmerge v15.0.0 ('Duel with the Devil') 64-bit 2018-03-21 01:11:31 / UTC 2018-03-17T16:03:16Z
    FromStats_BitRate                        : 36
    FromStats_Duration                       : 01:46:37.932000000
    FromStats_FrameCount                     : 856
    FromStats_StreamSize                     : 29138

    Text #3
    ID                                       : 6
    Format                                   : PGS
    Muxing mode                              : zlib
    Codec ID                                 : S_HDMV/PGS
    Codec ID/Info                            : Picture based subtitle format used on BDs/HD-DVDs
    Language                                 : English
    Default                                  : No
    Forced                                   : No
    Statistics Tags Issue                    : mkvmerge v15.0.0 ('Duel with the Devil') 64-bit 2018-03-21 01:11:31 / mkvmerge v15.0.0 ('Duel with the Devil') 64-bit 2018-03-21 01:11:31 / UTC 2018-03-17T16:03:16Z
    FromStats_BitRate                        : 23587
    FromStats_Duration                       : 01:40:31.609000000
    FromStats_FrameCount                     : 1684
    FromStats_StreamSize                     : 17784051

    Text #4
    ID                                       : 7
    Format                                   : PGS
    Muxing mode                              : zlib
    Codec ID                                 : S_HDMV/PGS
    Codec ID/Info                            : Picture based subtitle format used on BDs/HD-DVDs
    Language                                 : Spanish
    Default                                  : No
    Forced                                   : No
    Statistics Tags Issue                    : mkvmerge v15.0.0 ('Duel with the Devil') 64-bit 2018-03-21 01:11:31 / mkvmerge v15.0.0 ('Duel with the Devil') 64-bit 2018-03-21 01:11:31 / UTC 2018-03-17T16:03:16Z
    FromStats_BitRate                        : 22481
    FromStats_Duration                       : 01:46:35.749000000
    FromStats_FrameCount                     : 1714
    FromStats_StreamSize                     : 17972931

    Menu
    00:00:00.000                             : :Chapter 1
    00:03:21.201                             : :Chapter 2
    00:07:49.010                             : :Chapter 3
    00:10:28.419                             : :Chapter 4
    00:14:09.807                             : :Chapter 5
    00:17:50.111                             : :Chapter 6
    00:19:31.504                             : :Chapter 7
    00:25:55.137                             : :Chapter 8
    00:28:17.988                             : :Chapter 9
    00:32:28.572                             : :Chapter 10
    00:37:51.311                             : :Chapter 11
    00:45:03.367                             : :Chapter 12
    00:49:43.647                             : :Chapter 13
    00:56:28.468                             : :Chapter 14
    00:59:41.828                             : :Chapter 15
    01:02:17.651                             : :Chapter 16
    01:06:12.177                             : :Chapter 17
    01:09:54.524                             : :Chapter 18
    01:12:54.704                             : :Chapter 19
    01:16:19.742                             : :Chapter 20
    01:21:29.468                             : :Chapter 21
    01:25:57.778                             : :Chapter 22
    01:28:55.121                             : :Chapter 23
    01:32:06.813                             : :Chapter 24
    01:33:37.070                             : :Chapter 25
    01:37:15.538                             : :Chapter 26
    01:40:22.141                             : :Chapter 27
    01:41:26.122                             : :Chapter 28

  • Peso: 6.29 GiB

Sinopsis

Precuela de la película X-Men. Situada 17 años antes, narra los inicios del arma X y la forma en la que Lobezno se convirtió en mutante. Logan (Hugh Jackman), convertido en un mutante que se hace llamar Lobezno, y que es capaz de sacar unas afiladas garras y de una fuerza y agilidad sobrehumana, ultima su venganza contra Victor Creed (Liev Schreiber), culpable de la muerte de su novia. Mientras tanto, otros mutantes se acogen al programa X para unir sus fuerzas.

Ficha técnica

Video trailer de la película

Enlaces de descarga

Rip de Bluray

Descargar X-Men Origins Wolverine (2009) Full 1080p Latino




Aportes de DPeliculasHDmega la pass es:dpeliculashdmega.org Aportes de CinemaniaHD la pass es:cinemaniahdd.com

Películas relacionadas

  • Niños del hombre (2006) Full 1080p Latino

    2006
    Niños del hombre (2006) Full 1080p Latino

    0.0 1 h 49 min 2006

    Año 2027: el ser humano está al borde de la extinción: los hombres han perdido la capacidad de procrear...

    Director: Terry Needham

    Género: Acción

    Actores: Yolanda Vazquez

  • Winchester (2018) 1080p Latino

    2018
    Winchester (2018) 1080p Latino

    0.0 1h 39m 2018

    A finales del siglo XIX, después de la trágica muerte de su marido y su hijo, Sarah construye una casa-fortaleza...

    Director: Peter Spierig

    Género: Fantasía

    Actores: Xavier Gouault

  • Unlocked (2017) 1080p Latino

    2017
    Unlocked (2017) 1080p Latino

    3.0 1h 43m 2017

    Gira en torno a una agente de la CIA, especializada en interrogatorios, que es engañada por un sospechoso,...

    Director: Vera Homolacova

    Género: Acción

    Actores: Tosin Cole

  • Para atrapar al ladrón (1955) Full 1080p Latino

    1955
    Para atrapar al ladrón (1955) Full 1080p Latino

    0.0 1h 46m 1955

    A pesar de que John Robie "El Gato" (Cary Grant) es un ladrón de joyas reformado, se convierte en el...

    Director: Alfred Hitchcock

    Género: Crimen

    Actores: William 'Wee Willie' Davis

Comentarios 1
  • ocpgaiden - 22 marzo, 2018

    Gracias por la excelente pelicula