Your name (2016) Full 1080p Latino

2.349 vistas
1 estrella2 estrellas3 estrellas4 estrellas5 estrellas (3 votos, promedio: 5,00 de 5)
Cargando…

Información de Your name (2016) Full 1080p Latino

Datos de la película

  • Calidad: Full 1080p
  • Audio: Se especifica abajo de la Sinopsis
  • Subtitulos: Español Latino SRT
  • Resolución: 1920X1080
  • Formato: MKV
  • Codec: H.264
  • Encoder: Dpelis
  • Mediainfo: Clic para Mostrar Datos Ver
  • Format                                   : Matroska
    Format version                           : Version 4 / Version 2
    File size                                : 3.48 GiB
    Duration                                 : 1 h 46 min
    Overall bit rate                         : 4 668 kb/s
    Movie name                               : dpeliculashdmega.org
    Encoded date                             : UTC 2017-11-22 02:36:05 / UTC 2017-11-20T06:54:01Z
    Writing application                      : mkvmerge v15.0.0 ('Duel with the Devil') 64-bit
    Writing library                          : libebml v1.3.5 + libmatroska v1.4.5 / Lavf57.7.2

    Video
    ID                                       : 1
    Format                                   : AVC
    Format/Info                              : Advanced Video Codec
    Format profile                           : High@L4.1
    Format settings                          : CABAC / 4 Ref Frames
    Format settings, CABAC                   : Yes
    Format settings, RefFrames               : 4 frames
    Codec ID                                 : V_MPEG4/ISO/AVC
    Duration                                 : 1 h 46 min
    Bit rate                                 : 2 682 kb/s
    Width                                    : 1 920 pixels
    Height                                   : 1 080 pixels
    Display aspect ratio                     : 16:9
    Frame rate mode                          : Constant
    Frame rate                               : 23.976 (24000/1001) FPS
    Color space                              : YUV
    Chroma subsampling                       : 4:2:0
    Bit depth                                : 8 bits
    Scan type                                : Progressive
    Bits/(Pixel*Frame)                       : 0.054
    Stream size                              : 2.00 GiB (57%)
    Title                                    : Your name (2016) Full 1080p Latino
    Writing library                          : x264 core 148 r2708 86b7198
    Encoding settings                        : cabac=1 / ref=4 / deblock=1:0:0 / analyse=0x3:0x133 / me=esa / subme=10 / psy=1 / psy_rd=1.00:0.00 / mixed_ref=1 / me_range=24 / chroma_me=1 / trellis=2 / 8x8dct=1 / cqm=0 / deadzone=21,11 / fast_pskip=1 / chroma_qp_offset=-2 / threads=34 / lookahead_threads=5 / sliced_threads=0 / nr=0 / decimate=1 / interlaced=0 / bluray_compat=0 / constrained_intra=0 / bframes=8 / b_pyramid=2 / b_adapt=2 / b_bias=0 / direct=3 / weightb=1 / open_gop=0 / weightp=2 / keyint=240 / keyint_min=24 / scenecut=40 / intra_refresh=0 / rc_lookahead=60 / rc=crf / mbtree=1 / crf=20.0 / qcomp=0.60 / qpmin=0 / qpmax=69 / qpstep=4 / vbv_maxrate=62500 / vbv_bufsize=78125 / crf_max=0.0 / nal_hrd=none / filler=0 / ip_ratio=1.40 / aq=1:1.00
    Language                                 : Japanese
    Default                                  : Yes
    Forced                                   : No
    Color range                              : Limited
    Color primaries                          : BT.709
    Transfer characteristics                 : BT.709
    Matrix coefficients                      : BT.709
    Statistics Tags Issue                    : mkvmerge v15.0.0 ('Duel with the Devil') 64-bit 2017-11-22 02:36:05 / mkvmerge v15.0.0 ('Duel with the Devil') 64-bit 2017-11-22 02:36:05 / UTC 2017-11-20T06:54:01Z
    FromStats_BitRate                        : 2772124
    FromStats_Duration                       : 01:46:35.640000000
    FromStats_FrameCount                     : 153342
    FromStats_StreamSize                     : 2216188460

    Audio #1
    ID                                       : 2
    Format                                   : AC-3
    Format/Info                              : Audio Coding 3
    Format settings, Endianness              : Big
    Codec ID                                 : A_AC3
    Duration                                 : 1 h 46 min
    Bit rate mode                            : Constant
    Bit rate                                 : 384 kb/s
    Channel(s)                               : 6 channels
    Channel positions                        : Front: L C R, Side: L R, LFE
    Sampling rate                            : 48.0 kHz
    Frame rate                               : 31.250 FPS (1536 SPF)
    Bit depth                                : 16 bits
    Compression mode                         : Lossy
    Stream size                              : 293 MiB (8%)
    Title                                    : Latino-AC3
    Language                                 : Spanish
    Service kind                             : Complete Main
    Default                                  : Yes
    Forced                                   : No
    Statistics Tags Issue                    : mkvmerge v15.0.0 ('Duel with the Devil') 64-bit 2017-11-22 02:36:05 / mkvmerge v15.0.0 ('Duel with the Devil') 64-bit 2017-11-22 02:36:05 / UTC 2017-11-20T06:54:01Z
    FromStats_BitRate                        : 384000
    FromStats_Duration                       : 01:46:34.688000000
    FromStats_FrameCount                     : 199834
    FromStats_StreamSize                     : 306945024

    Audio #2
    ID                                       : 3
    Format                                   : DTS
    Format/Info                              : Digital Theater Systems
    Mode                                     : 16
    Format settings, Endianness              : Big
    Codec ID                                 : A_DTS
    Duration                                 : 1 h 46 min
    Bit rate mode                            : Constant
    Bit rate                                 : 1 509 kb/s
    Channel(s)                               : 6 channels
    Channel positions                        : Front: L C R, Side: L R, LFE
    Sampling rate                            : 48.0 kHz
    Frame rate                               : 93.750 FPS (512 SPF)
    Bit depth                                : 24 bits
    Compression mode                         : Lossy
    Stream size                              : 1.12 GiB (32%)
    Title                                    : Japones-DTS
    Language                                 : Japanese
    Default                                  : No
    Forced                                   : No
    Statistics Tags Issue                    : mkvmerge v15.0.0 ('Duel with the Devil') 64-bit 2017-11-22 02:36:05 / mkvmerge v15.0.0 ('Duel with the Devil') 64-bit 2017-11-22 02:36:05 / UTC 2017-11-20T06:54:01Z
    FromStats_BitRate                        : 1508999
    FromStats_Duration                       : 01:46:35.638000000
    FromStats_FrameCount                     : 599591
    FromStats_StreamSize                     : 1206377092

    Text
    ID                                       : 4
    Format                                   : UTF-8
    Codec ID                                 : S_TEXT/UTF8
    Codec ID/Info                            : UTF-8 Plain Text
    Title                                    : SRT
    Language                                 : Spanish
    Default                                  : No
    Forced                                   : No
    Statistics Tags Issue                    : mkvmerge v15.0.0 ('Duel with the Devil') 64-bit 2017-11-22 02:36:05 / mkvmerge v15.0.0 ('Duel with the Devil') 64-bit 2017-11-22 02:36:05 / UTC 2017-11-20T06:54:01Z
    FromStats_BitRate                        : 51
    FromStats_Duration                       : 01:39:56.949000000
    FromStats_FrameCount                     : 1097
    FromStats_StreamSize                     : 38773

    Menu
    00:00:00.000                             : :00:00:00.000
    00:01:34.094                             : :00:01:34.094
    00:03:21.868                             : :00:03:21.868
    00:05:13.271                             : :00:05:13.271
    00:08:37.308                             : :00:08:37.308
    00:12:11.314                             : :00:12:11.314
    00:14:32.372                             : :00:14:32.371
    00:17:22.500                             : :00:17:22.500
    00:22:57.918                             : :00:22:57.918
    00:27:05.624                             : :00:27:05.624
    00:28:16.570                             : :00:28:16.570
    00:29:53.542                             : :00:29:53.542
    00:32:42.836                             : :00:32:42.836
    00:37:26.995                             : :00:37:26.995
    00:41:57.765                             : :00:41:57.765
    00:44:30.334                             : :00:44:30.334
    00:45:54.001                             : :00:45:54.001
    00:48:28.656                             : :00:48:28.656
    00:53:01.470                             : :00:53:01.387
    00:56:53.869                             : :00:56:53.869
    01:03:42.319                             : :01:03:42.318
    01:06:03.793                             : :01:06:03.793
    01:09:44.931                             : :01:09:44.931
    01:12:41.816                             : :01:12:41.816
    01:16:42.473                             : :01:16:42.473
    01:21:21.710                             : :01:21:21.710
    01:29:12.806                             : :01:29:12.806
    01:32:51.858                             : :01:32:51.858
    01:37:01.816                             : :01:37:01.733
    01:41:19.615                             : :01:41:19.615

     

  • Peso: 3.48 GiB

Sinopsis

La película nos presenta a dos jóvenes, Mitsuha y Taki. La primera es una estudiante de instituto que vive en un pequeño pueblo rural en las montañas. Su padre es el alcalde y no pasa mucho tiempo en casa, y vive junto a su hermana pequeña y su abuela. Mitsuha es una persona honesta, pero no le gustan las costumbres religiosas de su familia ni que su padre participe en la campaña electoral. Lamenta que su vida se vea confinada en el pueblo y sueña con el estilo de vida de Tokyo. Taki es un estudiante de instituto que vive en Tokyo. Pasa el tiempo con sus amigos y trabaja en un restaurante italiano, y se interesa por la arquitectura y las artes. Un día, Mitsuha tiene un sueño en el que se convierte en un joven. Taki también tiene un sueño en el que es una estudiante en un pueblo de las montañas que nunca ha conocido. ¿Cuál es el secreto que se esconde tras estos sueños?

 

Nota: Audio Latino AC3 iTunes 5.1 – Audio Japones DTS BluRay 5.1

Ficha técnica

Video trailer de la película

Enlaces de descarga

Rip de Bluray

Descargar Your name (2016) Full 1080p Latino




Aportes de DPeliculasHDmega la pass es:dpeliculashdmega.org Aportes de CinemaniaHD la pass es:cinemaniahdd.com

Películas relacionadas

  • Si decido quedarme (2014) Full 1080p Latino

    2014
    Si decido quedarme (2014) Full 1080p Latino

    0.0 1 h 46 min 2014

    Mia es una joven de 17 años que parece tenerlo todo en la vida: una famila adorable, un novio que la...

    Director: R.J. Cutler

    Género: Drama

    Actores: William C. Vaughan

  • A Ghost Story (2017) 1080p Latino

    2017
    A Ghost Story (2017) 1080p Latino

    5.0 1h 27m 2017

    Un hombre recientemente fallecido regresa a su casa como un fantasma vestido con una sábana blanca para...

    Director: David Lowery

    Género: Drama

    Actores: Yasmina Gutierrez

  • Maze Runner prueba de fuego (2015) Full 1080p Latino

    2015
    Maze Runner prueba de fuego (2015) Full 1080p Latino

    5.0 2 h 11 min 2015

    En este nuevo capítulo de la trepidante saga "El Corredor del Laberinto", Thomas (Dylan O'Brien) y el...

    Director: Wes Ball

    Género: Acción

    Actores: Thomas Brodie-Sangster

  • Maze Runner correr o morir (2014) Full 1080p Latino

    2014
    Maze Runner correr o morir (2014) Full 1080p Latino

    5.0 1 h 53 min 2014

    Thomas abre los ojos y se da cuenta que está en un ascensor. Lo extraño es que no recuerda nada, ni...

    Director: Wes Ball

    Género: Acción

    Actores: Will Poulter

  • Se dice de mí (2010) Full 1080p Latino

    2010
    Se dice de mí (2010) Full 1080p Latino

    5.0 1 h 32 min 2010

    El guión, obra del dramaturgo Bert V. Royal, es una versión moderna y en clave estudiantil de “La...

    Director: Will Sandoval

    Género: Comedia

    Actores: Zack Kennedy

Comentarios 0